<?xml version="1.0" standalone="no"?>
<!DOCTYPE svg PUBLIC "-//W3C//DTD SVG 1.1//EN" "http://www.w3.org/Graphics/SVG/1.1/DTD/svg11.dtd" >
<svg xmlns="http://www.w3.org/2000/svg">
<metadata></metadata>
<defs>
<font id="pattayaregular" horiz-adv-x="1034" >
<font-face units-per-em="2048" ascent="1638" descent="-410" />
<missing-glyph horiz-adv-x="444" />
<glyph horiz-adv-x="0" />
<glyph unicode="&#xd;" horiz-adv-x="444" />
<glyph horiz-adv-x="0" />
<glyph horiz-adv-x="0" />
<glyph unicode=" "  horiz-adv-x="444" />
<glyph unicode="&#x09;" horiz-adv-x="444" />
<glyph unicode="&#xa0;" horiz-adv-x="444" />
<glyph unicode="!" horiz-adv-x="526" d="M357 1497l315 43l-297 -1067h-174zM167.5 0.5q-29.5 12.5 -52.5 35.5q-23 22 -36 52.5t-13 63.5t13 62.5t36 51.5q49 47 115 47q33 0 63 -12.5t52 -34.5t34.5 -51.5t12.5 -62.5t-12.5 -63.5t-34.5 -52.5t-52 -35t-63 -13t-62.5 12.5z" />
<glyph unicode="&#x22;" horiz-adv-x="723" d="M317 1540h215l-225 -475h-143zM639 1540h215l-225 -475h-144z" />
<glyph unicode="#" horiz-adv-x="1350" d="M337 440h-215l31 158h216l51 252h-210l31 158h211l75 371h150l-76 -371h265l75 371h150l-76 -371h199l-31 -158h-200l-51 -252h194l-31 -158h-195l-77 -382h-149l77 382h-265l-77 -382h-149zM783 598l51 252h-265l-51 -252h265z" />
<glyph unicode="$" horiz-adv-x="1122" d="M369 -30q-77 12 -140 42.5t-108 76.5t-68.5 107t-23.5 132q0 59 17 110.5t47 88.5q31 37 72.5 57t90.5 20q68 0 116.5 -37.5t59.5 -97.5q-42 0 -78 -13.5t-61 -37.5t-39 -58t-14 -73q0 -72 43 -119t118 -59l138 608l-91 109q-103 122 -145 232q-24 62 -24 130 q0 80 33 148.5t94 119.5t143.5 79t177.5 28h4l47 204h105l-49 -214q120 -24 189 -96q69 -75 69 -181q0 -85 -43 -139q-21 -26 -50.5 -40t-62.5 -14q-77 0 -125 64q39 28 61.5 74.5t22.5 99.5q0 48 -22 82.5t-62 49.5l-114 -500l31 -34q68 -74 70 -76q118 -128 166 -250 q27 -70 27 -155q0 -98 -39.5 -184.5t-110.5 -151.5q-72 -65 -167.5 -101.5t-203.5 -37.5l-58 -256h-103zM708 1460q-75 -12 -121 -67q-46 -57 -46 -136q0 -54 19 -103t56 -101zM657 195q58 69 58 167q0 65 -25 126t-71 127l-115 -504q97 17 153 84z" />
<glyph unicode="%" horiz-adv-x="1499" d="M41 1001q0 116 31.5 219t89.5 180q57 77 133 120t162 43q238 0 238 -306q0 -114 -32.5 -216t-90.5 -180t-135 -121.5t-162 -43.5q-234 0 -234 305zM1098 1540h147l-852 -1540h-147zM380.5 823.5q37.5 43.5 66.5 119.5t45 175.5t16 206.5q0 81 -14 117q-15 35 -49 35 q-39 0 -77.5 -45t-69.5 -121t-49.5 -171t-18.5 -190q0 -88 18 -129q17 -41 56 -41t76.5 43.5zM804 293q0 116 31.5 218.5t89.5 179.5q57 77 133 120t162 43q238 0 238 -305q0 -114 -32.5 -216t-90.5 -180t-135 -121.5t-162 -43.5q-234 0 -234 305zM1143.5 115.5 q37.5 43.5 66.5 119.5t45 175t16 206q0 81 -14 117q-15 35 -49 35q-51 0 -103 -78q-49 -75 -80 -196q-32 -125 -32 -252q0 -88 18 -129q17 -41 56 -41t76.5 43.5z" />
<glyph unicode="&#x26;" horiz-adv-x="1397" d="M272.5 -12q-77.5 25 -131.5 73q-55 48 -83.5 115.5t-28.5 151.5q0 85 29 168.5t82 155.5q52 72 121 123.5t147 74.5v8q-62 51 -91 113q-26 56 -26 147q0 83 35 159.5t97 135.5t144 93t172 34q69 0 128.5 -20.5t102.5 -59.5t66 -91t23 -112q0 -41 -11 -76.5t-32 -60.5 t-50.5 -39t-62.5 -14q-38 0 -69.5 16.5t-55.5 46.5q37 23 60.5 70t23.5 100q0 57 -28.5 90t-77.5 33q-41 0 -79 -23.5t-68 -65.5t-47 -95.5t-17 -110.5q0 -102 55 -172.5t152 -95.5v-8q-73 -14 -139.5 -57.5t-117.5 -109.5q-52 -66 -81 -143.5t-29 -156.5 q0 -106 53.5 -165.5t147.5 -59.5q67 0 132.5 28t120.5 79q56 53 95 124.5t54 154.5q-50 -2 -94 -13q-54 -19 -96 -47.5t-65 -62.5l-5 -1q-24 29 -38 73q-8 29 -8 54q0 57 35 106q23 32 58.5 57.5t78.5 39.5q48 14 139 22q9 1 54 4.5t81 11.5q52 18 98 50q47 33 70 65h5 q31 -31 44 -75q7 -22 7 -48q0 -60 -40 -116q-26 -37 -65 -65t-85 -43q-40 -10 -83 -12q-15 -131 -67 -238.5t-135 -184.5t-193 -118.5t-238 -41.5q-96 0 -173.5 25z" />
<glyph unicode="'" horiz-adv-x="401" d="M317 1540h215l-225 -475h-143z" />
<glyph unicode="(" horiz-adv-x="895" d="M390 -118q-83 214 -83 454q0 193 53.5 378.5t153.5 347.5q99 162 238.5 290t309.5 211l27 -82q-159 -94 -285 -287q-127 -195 -193 -436q-71 -257 -71 -516q0 -196 39 -366.5t115 -301.5l-68 -59q-153 153 -236 367z" />
<glyph unicode=")" horiz-adv-x="846" d="M-140 -403q158 93 285 287q126 193 193 435q71 257 71 517q0 196 -39 366t-115 301l68 60q155 -157 237 -367q82 -213 82 -455q0 -193 -53 -377.5t-153 -347.5q-100 -162 -240 -290t-309 -211z" />
<glyph unicode="*" horiz-adv-x="1055" d="M421 770l51 297q-58 -72 -104.5 -102.5t-90.5 -30.5q-46 0 -74 32.5t-28 83.5v14q0 5 2 13l260 84q-142 24 -200 64q-26 17 -37 38t-11 47q0 35 16 62q18 28 60 63l207 -182q-35 114 -35 184q0 129 109 129q37 0 88 -16l-51 -297q58 72 107 104.5t93 32.5q47 0 75 -32 t28 -84q0 -16 -4 -27l-265 -86q143 -27 199 -65q26 -18 36.5 -39t10.5 -48q0 -36 -14 -60q-16 -27 -60 -65l-206 183q17 -65 25.5 -107.5t8.5 -77.5q0 -129 -110 -129q-32 0 -86 17z" />
<glyph unicode="+" horiz-adv-x="905" d="M322 616h-291l37 162h290l62 285h164l-62 -285h299l-35 -162h-301l-63 -294h-164z" />
<glyph unicode="," horiz-adv-x="442" d="M66 -223q0 24 13.5 44.5t39.5 47.5q27 28 40 48t13 46q0 24 -27 41q-96 60 -96 150q0 33 12.5 63t34.5 52t52 35t63 13q67 0 103 -42.5t36 -112.5q0 -45 -18 -100.5t-52 -111.5q-35 -59 -85 -112.5t-111 -95.5q-18 12 -18 35z" />
<glyph unicode="-" horiz-adv-x="594" d="M76 616h409l-34 -161h-412z" />
<glyph unicode="." horiz-adv-x="539" d="M162 4.5q-30 12.5 -52 34.5t-34.5 52t-12.5 63t12.5 63t34.5 52t52 35t63 13t63 -13t53 -35t35.5 -52t12.5 -63t-12.5 -63t-35.5 -52t-53 -34.5t-63 -12.5t-63 12.5z" />
<glyph unicode="/" horiz-adv-x="637" d="M457 1536h147l-434 -2048h-147z" />
<glyph unicode="0" horiz-adv-x="1118" d="M129 128q-86 126 -86 363q0 140 22.5 274t65.5 252t105 215.5t139 166.5q79 72 171 110t194 38q197 0 299 -135q47 -64 71 -155t24 -203q0 -161 -35 -335q-39 -196 -115 -352q-87 -179 -209 -276q-143 -112 -319 -112q-225 0 -327 149zM579.5 173.5q47.5 39.5 90.5 112.5 q84 144 135 372q51 234 51 468q0 127 -28 210q-32 89 -91 89q-48 0 -95.5 -40.5t-91.5 -113.5q-43 -73 -80 -168.5t-63 -204.5q-58 -235 -58 -458q0 -137 26 -211q32 -95 108 -95q49 0 96.5 39.5z" />
<glyph unicode="1" horiz-adv-x="649" d="M313 1278h-194l24 94q113 0 210 25q153 40 311 135l-326 -1532h-295z" />
<glyph unicode="2" horiz-adv-x="1008" d="M556.5 -15.5q-41.5 9.5 -116.5 31.5q-69 20 -118 30.5t-100 10.5q-56 0 -111.5 -13.5t-115.5 -45.5h-8q-12 48 -12 93q0 75 31 142q52 119 188 255q82 82 125 123q87 86 139.5 142t94.5 117q51 73 78.5 146.5t27.5 152.5q0 117 -36 182q-40 71 -117 71q-35 0 -65.5 -12.5 t-51.5 -35.5t-33 -54t-12 -64q0 -71 27.5 -124.5t70.5 -79.5v-8q-35 -32 -76 -50.5t-79 -18.5q-30 0 -57 14t-47 41q-44 59 -44 157q0 62 28.5 124.5t81.5 112.5q57 53 138 83t182 30q87 0 160 -25.5t126 -73.5q54 -49 83 -118.5t29 -156.5q0 -135 -94 -260 q-40 -53 -94.5 -105t-125.5 -109q-84 -66 -127 -98q-146 -110 -230 -201q-48 -51 -80 -109q56 15 125 15q78 0 187 -23q57 -12 90.5 -17.5t64.5 -5.5q54 0 101.5 23.5t98.5 80.5l6 -4q26 -73 26 -127q0 -55 -22 -100.5t-61 -78.5q-38 -33 -87.5 -51t-103.5 -18 q-43 0 -84.5 9.5z" />
<glyph unicode="3" horiz-adv-x="1053" d="M262 11q-108 28 -170 97q-80 85 -80 230q0 64 16 118t47 93q66 82 185 82q64 0 102 -22q47 -29 58 -83q-105 -7 -149 -83q-31 -55 -31 -138q0 -87 53 -138q48 -48 122 -48q47 0 94 22t85 64q86 98 86 264q0 59 -16.5 117.5t-48.5 109.5q-73 115 -207 160 q83 24 148.5 68.5t112.5 102.5q44 55 66.5 114t22.5 114q0 77 -38 121q-41 47 -118 47q-73 0 -118 -43q-44 -44 -44 -116q0 -50 18 -87q20 -48 60 -59q-75 -69 -156 -69q-30 0 -57 11.5t-47 33.5q-43 46 -43 129q0 68 32 125.5t91 99.5q57 41 134.5 63.5t166.5 22.5 q91 0 163 -23.5t122 -66.5q47 -41 71.5 -95t24.5 -114q0 -107 -70 -205q-77 -108 -211 -176q130 -41 197 -136q61 -86 61 -202q0 -127 -72 -246q-75 -124 -200 -199q-135 -81 -305 -81q-84 0 -158 21z" />
<glyph unicode="4" horiz-adv-x="975" d="M536 441l-41 12q-74 22 -123.5 32.5t-103.5 10.5q-62 0 -116 -9t-105 -34h-8l-43 80v10q206 245 310 420q138 234 138 416q0 67 -16 127q45 13 102 13q92 0 145 -51q24 -24 37 -56.5t13 -69.5q0 -93 -87 -229q-73 -114 -200 -248q-120 -125 -223 -205l2 -6q37 15 86.5 26 t95.5 11q35 0 72.5 -5.5t102.5 -17.5l38 -7l166 478h131l-101 -476q68 26 130 97l6 -4q33 -56 33 -112q0 -81 -62 -143q-62 -61 -158 -79l-89 -422h-285z" />
<glyph unicode="5" horiz-adv-x="1059" d="M126.5 67q-95.5 77 -95.5 221q0 63 19 116t55 92q73 79 191 79q125 0 146 -104q-85 -10 -134.5 -60.5t-49.5 -129.5q0 -72 42 -113t115 -41q59 0 109.5 27.5t86.5 79.5q36 51 55.5 120t19.5 151q0 143 -58.5 219.5t-166.5 76.5q-57 0 -122 -22.5t-146 -70.5l-28 20 l159 775q216 -27 343 -27q92 0 178.5 13.5t178.5 44.5q4 -31 4 -68q0 -105 -52 -167q-59 -70 -183 -70q-67 0 -181 22q-39 6 -89 17l-72 12l-82 -371q129 64 254 64q82 0 149 -29t115 -84t73 -134t25 -175q0 -124 -41.5 -227t-118.5 -179q-76 -75 -184 -115t-237 -40 q-182 0 -277.5 77z" />
<glyph unicode="6" horiz-adv-x="1023" d="M263.5 21q-78.5 31 -128.5 95q-52 65 -77 167.5t-25 246.5q0 272 97 509q46 111 111 202.5t145 156.5q81 66 172.5 101t189.5 35q66 0 121.5 -16.5t94.5 -46.5q39 -31 60 -74.5t21 -94.5q0 -39 -11 -73t-32 -60t-48 -40.5t-59 -14.5q-34 0 -63 18t-41 47q32 17 49.5 49.5 t17.5 69.5q0 50 -26 80q-30 35 -81 35q-62 0 -124 -50t-117 -142t-97 -216.5t-63 -267.5l7 2q36 94 119.5 143t199.5 49q70 0 128 -24t99 -70q42 -47 64.5 -112.5t22.5 -147.5q0 -150 -74 -287q-73 -134 -195 -215q-61 -41 -130 -63t-140 -22q-109 0 -187.5 31zM579 182 q42 32 76 89q34 59 54 136t20 164q0 111 -46 167q-41 48 -118 48q-121 0 -179 -92q-54 -86 -54 -246q0 -155 44 -230q40 -68 118 -68q43 0 85 32z" />
<glyph unicode="7" horiz-adv-x="950" d="M209 58q-56 67 -56 182q0 143 94 319q67 124 207 298q52 66 111 133q119 138 164 211q26 43 26 71q-50 -15 -78 -21t-59 -6q-30 0 -60.5 6t-70.5 17q-42 11 -72.5 16.5t-63.5 5.5q-61 0 -107.5 -24.5t-94.5 -81.5l-6 2q-27 58 -27 125q0 53 20.5 97.5t58.5 75.5t90 48 t113 17q45 0 82.5 -7.5t105.5 -25.5q62 -17 105.5 -25t96.5 -8q116 0 276 43l4 -8q0 -32 -24 -84t-70 -127q-41 -66 -97 -152q-135 -205 -221 -356q-116 -205 -165 -378q-26 -95 -26 -179q0 -109 37 -212q-69 -38 -144 -38q-95 0 -149 66z" />
<glyph unicode="8" horiz-adv-x="1022" d="M276.5 15.5q-84.5 27.5 -146.5 78.5q-63 52 -98 124.5t-36 159.5q0 147 93 255q92 108 296 198q-84 87 -128 160q-56 92 -56 184q0 77 33 145t93 120q61 52 141.5 81t173.5 29q81 0 152 -20t123 -58t81 -90.5t31 -115.5q0 -103 -74 -194.5t-227 -175.5 q64 -59 104.5 -100.5t73.5 -88.5q81 -116 85 -244q0 -95 -40 -181t-112 -151q-73 -66 -170 -103.5t-208 -39.5q-100 0 -184.5 27.5zM764 1131q45 87 45 167q0 72 -36.5 113t-99.5 41q-39 0 -73 -15t-58 -43q-24 -27 -37.5 -64.5t-13.5 -81.5q0 -73 45 -144q38 -62 106 -127 q77 66 122 154zM550.5 149q41.5 20 72.5 56q30 36 47 82.5t17 97.5q-1 92 -68 192q-27 40 -63 80t-87 91q-98 -67 -150.5 -162t-52.5 -206q0 -114 55 -183q54 -68 140 -68q48 0 89.5 20z" />
<glyph unicode="9" horiz-adv-x="1001" d="M201.5 10.5q-54.5 16.5 -93.5 47.5q-81 62 -81 168q0 80 42 134q43 56 105 56q37 0 66 -18.5t39 -47.5q-31 -18 -49 -50t-18 -67q0 -42 26.5 -71t76.5 -29q63 0 123.5 51t112.5 143q51 92 88 216.5t56 267.5l-7 -2q-36 -94 -119 -143t-199 -49q-71 0 -129 24t-99 70 q-42 47 -64.5 112.5t-22.5 147.5q0 150 80 282q38 63 91.5 116t116.5 90q131 78 284 78q190 0 285.5 -135t95.5 -404q0 -139 -23.5 -268t-68.5 -241q-44 -111 -106 -202.5t-138 -156.5q-77 -66 -165 -101t-183 -35q-68 0 -122.5 16.5zM658 872q57 95 57 271q0 101 -24 165 q-35 94 -126 94q-52 0 -98 -36.5t-80 -98.5q-34 -61 -53 -137t-19 -153q0 -107 41 -161q38 -50 103 -50q134 0 199 106z" />
<glyph unicode=":" horiz-adv-x="547" d="M285 618.5q-30 12.5 -52 34.5t-34.5 52t-12.5 63t12.5 63t34.5 53t52 35.5t63 12.5t63 -12.5t53 -35.5t35.5 -53t12.5 -63t-12.5 -63t-35.5 -52t-53 -34.5t-63 -12.5t-63 12.5zM183 127.5q-30 12.5 -52 34.5q-22 21 -34.5 51t-12.5 63t12.5 63.5t34.5 52.5t52 35t63 13 t63 -13t53 -35t35.5 -52.5t12.5 -63.5t-12.5 -63t-35.5 -51q-23 -22 -53 -34.5t-63 -12.5t-63 12.5z" />
<glyph unicode=";" horiz-adv-x="565" d="M291 528.5q-30 12.5 -51 34.5q-22 22 -34.5 52t-12.5 63t12.5 63t34.5 53q21 23 51 35.5t63 12.5t63 -12.5t53 -35.5t35.5 -53t12.5 -63t-12.5 -63t-35.5 -52t-53 -34.5t-63 -12.5t-63 12.5zM111 -190q0 24 13.5 44.5t39.5 47.5q27 28 40 48t13 46q0 24 -27 41 q-96 60 -96 149q0 33 12.5 63t34.5 53t52 35.5t63 12.5q67 0 103 -42.5t36 -112.5q0 -45 -18 -100.5t-52 -111.5q-35 -59 -85 -112.5t-111 -95.5q-18 12 -18 35z" />
<glyph unicode="&#x3c;" horiz-adv-x="733" d="M14 487l19 84l690 349l-14 -164l-455 -238l373 -194l-45 -158z" />
<glyph unicode="=" horiz-adv-x="1055" d="M205 877h753l-47 -230h-755zM115 436h753l-47 -229h-755z" />
<glyph unicode="&#x3e;" horiz-adv-x="741" d="M29 330l454 237l-372 195l45 158l567 -322l-18 -84l-691 -348z" />
<glyph unicode="?" horiz-adv-x="903" d="M277 725q25 46 57 88.5t76 90.5q20 23 19 22q39 43 65.5 75t48.5 66q60 97 60 203q0 90 -35.5 138t-101.5 48q-33 0 -62.5 -12.5t-50.5 -35.5t-33 -54t-12 -66q0 -52 26.5 -97t71.5 -65v-8q-36 -33 -77 -51t-78 -18q-65 0 -107 48q-41 47 -41 124q0 72 32 134.5t90 109.5 t135.5 72.5t166.5 25.5q165 0 262 -75q47 -37 71 -89.5t24 -118.5q0 -63 -21.5 -116.5t-61.5 -103.5q-33 -41 -73.5 -77.5t-109.5 -94.5q-66 -55 -108 -94t-75 -82q-84 -109 -84 -237h-135q0 136 61 250zM196.5 13q-29.5 13 -52.5 36t-36 52.5t-13 62.5t13 63t36 52 q49 47 115 47q33 0 63 -12.5t52 -34.5t34.5 -52t12.5 -63q0 -66 -47 -115q-22 -23 -52 -36t-63 -13t-62.5 13z" />
<glyph unicode="@" horiz-adv-x="1410" d="M131 -97q-150 130 -150 409q0 125 29.5 244t85.5 226q54 104 132 191t173 150q199 131 431 131q109 0 200 -29.5t157 -88.5q68 -61 105 -149.5t37 -202.5q0 -150 -63 -291q-30 -65 -71 -120.5t-90 -95.5q-50 -40 -105 -62t-111 -22q-69 0 -110 33t-45 95 q-56 -74 -113.5 -111t-122.5 -37q-79 0 -122 53.5t-43 156.5q0 59 14.5 121t41.5 120q26 57 62 107t77 87q91 79 178 79q32 0 55 -12.5t53 -43.5l33 51l155 -15l-95 -361q-14 -54 -21 -85.5t-7 -55.5q0 -27 8 -43q11 -21 32 -21q30 0 69.5 38.5t75.5 102.5q38 69 61 154 t23 173q0 159 -78 242.5t-225 83.5q-88 0 -173.5 -29.5t-161.5 -83.5t-139.5 -127.5t-108.5 -160.5q-47 -89 -72 -185.5t-25 -194.5q0 -192 84 -280q81 -87 249 -87q127 0 234 49q106 47 173 134q25 -12 40 -38.5t15 -68.5q0 -80 -82 -139q-69 -50 -188 -77 q-103 -25 -204 -25q-229 0 -357 111zM649 332q31 17 47 45l103 387q-21 20 -44 20q-37 0 -75.5 -36t-72.5 -96q-34 -58 -54 -125.5t-20 -127.5q0 -45 13 -65.5t42 -20.5t61 19z" />
<glyph unicode="A" horiz-adv-x="1368" d="M348 -228q-42 5 -79 24q-97 47 -97 188q0 68 21.5 163t61.5 205q88 242 218 465q-102 -6 -161.5 -30.5t-78.5 -75.5q9 0 18 -21t9 -43q0 -36 -33 -58t-82 -22q-55 0 -90 30q-37 31 -37 89q0 51 31 97.5t88 80.5q58 35 134.5 54.5t164.5 19.5q43 0 107 -6q172 271 344 425 q200 179 368 179q100 0 162 -29l-321 -1507h-295l157 743q-74 34 -138.5 51t-135.5 23q-116 -251 -190 -513q-76 -263 -76 -423q0 -79 28 -114q-56 0 -98 5zM1096 1391q-89 -48 -187 -181q-96 -132 -182 -305q140 -27 250 -71z" />
<glyph unicode="B" horiz-adv-x="1313" d="M659 -6q-69 40 -69 123q0 55 26 119q38 -41 70 -57.5t68 -16.5q102 0 157 126q23 51 34 115.5t11 126.5q0 118 -41 184q-49 77 -153 77q-55 0 -94 -7l-168 -784h-295l278 1303l303 40l-96 -454h12q59 0 113 29t95 79q40 49 63.5 108t23.5 116q0 44 -15.5 83.5t-46.5 69.5 q-71 68 -208 68q-126 0 -239 -54q-126 -61 -193 -165q-80 -121 -80 -279q0 -66 15 -102q4 -13 10 -23q4 -7 4 -14q-109 0 -164 43.5t-55 144.5q0 140 107 267q50 60 119.5 110.5t152.5 87.5q175 78 364 78q211 0 331 -100q52 -44 78.5 -102.5t26.5 -123.5q0 -97 -52 -180 q-58 -92 -153 -145q123 -22 187 -119q55 -85 55 -211q0 -52 -10 -115t-30 -125q-49 -154 -139 -241q-112 -109 -269 -109q-85 0 -134 29z" />
<glyph unicode="C" horiz-adv-x="1018" d="M288 -5.5q-83 27.5 -138 86.5q-56 60 -83.5 156.5t-27.5 233.5q0 155 36 323q42 195 120 349q91 179 221 279q148 114 338 114q153 0 243 -64q99 -70 99 -210q0 -88 -32 -135q-38 -54 -112 -54q-31 0 -60.5 11t-55.5 42q18 9 35 28.5t30 45.5q29 58 29 115q0 55 -28 87 q-33 38 -97 38q-55 0 -108.5 -40.5t-102.5 -114.5q-47 -71 -87 -166t-68 -202q-28 -108 -44 -220t-16 -214q0 -76 11.5 -133t37.5 -97q57 -89 197 -89q120 0 223 53.5t176 151.5l47 -21q-39 -98 -107.5 -171.5t-154.5 -121.5q-79 -44 -163 -66t-159 -22q-116 0 -199 27.5z " />
<glyph unicode="D" horiz-adv-x="1358" d="M504 82l-17 -82h-294l278 1303l303 40l-246 -1148q56 -41 117 -41q59 0 112.5 37t98.5 105q83 125 135 342q47 203 47 417q0 200 -82 298q-76 89 -217 89q-114 0 -212 -34t-170 -98q-74 -66 -114 -159t-40 -207q0 -64 14 -102q4 -13 10 -23q4 -7 4 -14q-107 0 -163 44.5 t-56 145.5q0 69 27 136.5t78 128.5q50 60 120.5 110.5t154.5 87.5q178 78 382 78q189 0 318 -83q118 -77 176 -214q53 -130 53 -293q0 -115 -20.5 -233t-58.5 -228q-38 -108 -90.5 -201.5t-115.5 -162.5q-65 -71 -136.5 -109.5t-145.5 -38.5q-124 0 -250 109z" />
<glyph unicode="E" horiz-adv-x="940" d="M223 -8.5q-72 28.5 -119 80.5q-45 49 -67.5 114t-22.5 138q0 81 26 165.5t75 157.5q50 76 120.5 130t157.5 77q-64 46 -94.5 110t-30.5 136q0 79 33.5 157.5t93.5 141.5q62 66 144.5 103.5t177.5 37.5q61 0 115 -16.5t93 -48.5q41 -33 63 -81t22 -110q0 -45 -12 -84 t-33 -68t-49 -45t-58 -16q-56 0 -96 55q17 6 34 24.5t30 44.5q12 25 19 54t7 56q0 58 -35 89q-29 25 -78 25q-44 0 -83 -24t-67 -66q-28 -41 -43.5 -93t-15.5 -106q0 -97 48 -167q52 -78 159 -107q-104 -23 -192 -106q-79 -76 -127 -183q-47 -107 -47 -200t45 -147 q50 -60 149 -60q49 0 103.5 13.5t104.5 39.5q116 59 171 156l47 -21q-81 -177 -247 -282q-80 -50 -170 -76.5t-183 -26.5q-96 0 -168 28.5z" />
<glyph unicode="F" horiz-adv-x="940" d="M475 1368q-63 -2 -110.5 -23.5t-81.5 -67.5q-74 -101 -74 -333q0 -66 15 -102q4 -13 10 -23q4 -7 4 -14q-110 0 -163 44q-57 48 -57 155q0 106 39.5 201t120.5 167q87 78 221.5 121t317.5 43q35 0 70 -4l52 -5q93 -10 121 -12q43 -4 97 -4q109 0 184 25q-9 -26 -19 -69 q-22 -86 -82 -136q-35 -29 -93 -41q-124 0 -287 39l-86 -407h299l-33 -152h-299l-166 -770h-295z" />
<glyph unicode="G" horiz-adv-x="1184" d="M338 -404q-61 20 -105 57t-68 89t-24 113q0 59 21 110.5t59 91.5q37 39 88 60.5t108 21.5q79 0 126.5 -38t47.5 -103q0 -49 -22 -78q-19 25 -50.5 39t-66.5 14q-63 0 -100 -40q-39 -41 -39 -107q0 -65 38 -106q37 -42 95 -42q71 0 122 63.5t79 188.5l102 453h-8 q-57 -78 -135.5 -119t-171.5 -41q-90 0 -163 36.5t-125 104.5t-80 164t-28 213q0 113 25.5 217.5t74.5 195.5q98 184 267 288q174 108 381 108q86 0 156.5 -19.5t119.5 -55.5q49 -37 75 -89.5t26 -117.5q0 -87 -43 -141q-21 -26 -50.5 -40t-62.5 -14q-38 0 -72 16.5 t-57 47.5q36 24 62 79t26 109q0 62 -35.5 95.5t-101.5 33.5q-60 0 -118.5 -28t-112.5 -79q-53 -50 -98 -119.5t-77 -150.5q-69 -171 -69 -360q0 -155 48.5 -235.5t141.5 -80.5q112 0 195.5 115.5t136.5 341.5l242 -2l-150 -688q-66 -304 -185 -449q-119 -143 -310 -143 q-74 0 -135 20z" />
<glyph unicode="H" horiz-adv-x="1362" d="M502 1393q-138 -58 -212.5 -172t-74.5 -277q0 -66 15 -102q4 -13 10 -23q4 -7 4 -14q-110 0 -163 44q-56 47 -56 155q0 66 28.5 132t81.5 127q51 59 120 109t150 87q172 77 338 77q46 0 82 -4l-131 -610h301l131 610h295l-325 -1532h-295l164 770h-301l-164 -770h-295z " />
<glyph unicode="I" horiz-adv-x="768" d="M489 1391q-138 -57 -212 -170t-74 -277q0 -64 14 -102q4 -13 10 -23q4 -7 4 -14q-111 0 -162 44q-57 48 -57 155q0 67 29 132.5t82 126.5q50 58 119.5 108.5t150.5 87.5q170 77 338 77q46 0 82 -4l-326 -1532h-294z" />
<glyph unicode="J" horiz-adv-x="1098" d="M113 -344q-78 76 -78 209q0 52 17 101.5t48 87.5q33 40 79.5 62.5t105.5 22.5q41 0 72.5 -3.5t58.5 -15.5q69 -31 69 -118q0 -36 -12 -82q-37 31 -65 43q-25 10 -58 10q-68 0 -107 -47q-18 -20 -27 -47.5t-9 -56.5q0 -73 48 -112q19 -16 43 -24t48 -8q36 0 63.5 10 t50.5 36q47 55 81 206l321 1463q-138 -57 -213.5 -171.5t-75.5 -277.5q0 -66 15 -102q4 -13 10 -23q4 -7 4 -14q-111 0 -162 44q-57 48 -57 155q0 67 29 132.5t82 126.5q50 58 119.5 108.5t150.5 87.5q170 77 338 77h82l-307 -1454q-26 -122 -66.5 -214.5t-101.5 -155.5 q-65 -67 -156 -101.5t-215 -34.5q-145 0 -225 80z" />
<glyph unicode="K" horiz-adv-x="1231" d="M764 10q-31 34 -31 92q0 46 14 106.5t41 156.5q27 97 40.5 160t13.5 116q0 65 -27 101q-30 38 -96 38q-39 0 -68 -8l-164 -772h-294l296 1393q-138 -58 -212 -172t-74 -277q0 -64 14 -102q4 -13 10 -23q4 -7 4 -14q-111 0 -162 44q-57 48 -57 155q0 67 29 132.5t82 126.5 q50 58 119.5 108.5t150.5 87.5q170 77 338 77q46 0 82 -4l-133 -627l58 77q55 76 147 197l76 103l71 95l58 78l40 52l15 19h215l-569 -656q26 0 37 1t34 1q140 0 202 -62q52 -53 52 -157q0 -57 -13 -121.5t-37 -152.5q-27 -98 -38.5 -149.5t-11.5 -94.5q0 -48 21.5 -84.5 t58.5 -50.5q-123 -35 -203 -35q-89 0 -129 45z" />
<glyph unicode="L" horiz-adv-x="776" d="M1008 -480.5q-69 31.5 -149 89.5q-73 51 -145 112q-169 140 -309 198q-81 34 -174 34h-23q-6 0 -24 -2l305 1419q-138 -57 -212 -169.5t-74 -276.5q0 -63 14 -103q4 -13 10 -23q4 -7 4 -14q-111 0 -162 45q-57 48 -57 154q0 67 29 132.5t82 126.5q51 59 120.5 109.5 t149.5 87.5q170 77 338 77q37 0 82 -5l-315 -1470q49 -11 99.5 -33t115.5 -57l112 -60q130 -71 235 -98q60 -16 126 -16q93 0 172 33q-18 -150 -73 -235q-27 -42 -62.5 -64.5t-77.5 -22.5q-68 0 -137 31.5z" />
<glyph unicode="M" horiz-adv-x="1612" d="M657 1407q-156 -52 -240.5 -169.5t-84.5 -291.5q0 -66 14 -104q3 -11 10 -22q4 -7 4 -15q-104 0 -159 42q-60 46 -60 144q0 64 26 130t74 128q47 60 109.5 112.5t135.5 91.5q73 40 151.5 61.5t155.5 21.5q76 0 155 -29l-47 -1079l451 1079h295l-215 -1507h-295l131 920 l-385 -920h-281l41 924l-342 -924h-164z" />
<glyph unicode="N" horiz-adv-x="1368" d="M497 1403q-141 -50 -212.5 -154.5t-71.5 -255.5q0 -66 14.5 -120.5t40.5 -88.5q-132 0 -194 53.5t-62 168.5q0 142 86 269q82 121 223 195q145 74 313 74q47 0 82.5 -6.5t79.5 -21.5l247 -1096l229 1112h199l-334 -1532h-283l-237 1016l-234 -1016h-194z" />
<glyph unicode="O" horiz-adv-x="1362" d="M324 81q-103 103 -103 318q0 85 16 189t46 208q32 111 79.5 212t106.5 177q137 175 307 175q31 0 55.5 -3.5t51.5 -13.5q-89 -52 -176 -226q-80 -161 -131 -363q-52 -203 -52 -363q0 -108 28 -170q30 -67 91 -67q50 0 101.5 39t101.5 110q48 69 89 160.5t71 195.5 q65 224 65 424q0 96 -11 161t-39 108q-30 46 -81 68t-131 22q-117 0 -224 -36.5t-188 -104.5q-84 -71 -131 -169t-47 -217q0 -45 11 -78q3 -13 7 -19q3 -7 3 -13q-102 0 -154.5 40.5t-52.5 131.5q0 141 118 273q116 128 301 205q195 81 406 81q256 0 377 -147 q108 -132 108 -377q0 -103 -19 -217t-57 -224q-42 -120 -103.5 -224t-141.5 -181q-185 -178 -434 -178q-171 0 -264 93z" />
<glyph unicode="P" horiz-adv-x="1174" d="M471 1303l303 40l-145 -684q97 7 185 90q80 75 127 190q46 110 46 224q0 120 -59 197q-32 39 -81 60.5t-114 21.5q-124 0 -222.5 -34t-167.5 -98t-104.5 -157t-35.5 -209q0 -64 14 -102q4 -13 10 -23q4 -7 4 -14q-111 0 -162 44q-57 48 -57 155q0 67 29 132.5t82 126.5 q50 58 119.5 108.5t150.5 87.5q170 77 338 77q237 0 368 -123q58 -55 86.5 -127t28.5 -153q0 -99 -40.5 -197t-116.5 -175q-80 -82 -190.5 -129.5t-243.5 -47.5h-11l-125 -584h-294z" />
<glyph unicode="Q" horiz-adv-x="1362" d="M932 -210.5q-45 20.5 -75 58.5q-25 31 -42 70t-37 98q-88 -28 -190 -28q-171 0 -264 93q-103 103 -103 318q0 85 16 189t46 208q32 111 79.5 212t106.5 177q137 175 307 175q31 0 55.5 -3.5t51.5 -13.5q-89 -52 -176 -226q-80 -161 -131 -363q-52 -203 -52 -363v-46 q-1 -19 4 -42q81 19 127 19q51 0 90 -14.5t74 -41.5q51 66 97 160.5t81 203.5q35 111 54.5 227.5t19.5 225.5q0 96 -11 161t-39 108q-30 46 -81 68t-131 22q-117 0 -224 -36.5t-188 -104.5q-84 -71 -131 -169t-47 -217q0 -45 11 -78q3 -13 7 -19q3 -7 3 -13 q-102 0 -154.5 40.5t-52.5 131.5q0 141 118 273q116 128 301 205q195 81 406 81q256 0 377 -147q108 -132 108 -377q0 -153 -40 -317q-45 -182 -128 -327q-94 -166 -223 -262q50 -76 102 -115q67 -50 154 -50q24 0 45 4q-40 -102 -93 -141q-47 -35 -118 -35q-65 0 -110 20.5 zM721 176q-21 34 -48 52t-69 18q-36 0 -59 -8q27 -84 98 -84q44 0 78 22z" />
<glyph unicode="R" horiz-adv-x="1231" d="M764 10q-31 34 -31 92q0 46 14 106.5t41 156.5q27 97 40.5 160t13.5 116q0 65 -27 101q-30 38 -96 38q-37 0 -68 -8l-164 -772h-294l278 1303l303 40l-100 -473h16q61 0 115 32.5t95 87.5q38 52 59.5 115t21.5 122q0 44 -13.5 83t-39.5 68q-59 64 -172 64 q-125 0 -226.5 -33.5t-174.5 -98.5q-74 -65 -113 -158t-39 -208q0 -64 14 -102q4 -13 10 -23q4 -7 4 -14q-111 0 -162 44q-57 48 -57 155q0 67 29 132.5t82 126.5q50 58 119.5 108.5t150.5 87.5q170 77 338 77q116 0 204.5 -26.5t148.5 -74.5q56 -45 84 -103.5t28 -123.5 q0 -98 -57 -190q-64 -102 -164 -160q79 -24 111 -77q30 -51 30 -128q0 -57 -13 -121.5t-37 -152.5q-27 -98 -38.5 -149.5t-11.5 -94.5q0 -48 21.5 -84.5t58.5 -50.5q-123 -35 -203 -35q-89 0 -129 45z" />
<glyph unicode="S" horiz-adv-x="1167" d="M324 -11.5q-79 25.5 -136 73.5q-58 48 -88.5 114t-30.5 146q0 67 21.5 126.5t60.5 103.5t91 68.5t110 24.5q72 0 121 -36t61 -99q-107 0 -170 -57q-30 -27 -46.5 -66t-16.5 -86q0 -90 52.5 -142.5t141.5 -52.5q53 0 99 19.5t80 53.5t52.5 81.5t18.5 101.5q0 100 -68 208 q-27 42 -59.5 82.5t-90.5 107.5q-52 60 -87 104t-63 90q-68 111 -68 218q0 80 34 148.5t97 119.5t147 79t181 28q165 0 265 -78q48 -38 73.5 -91t25.5 -118q0 -85 -43 -139q-20 -26 -49.5 -40t-62.5 -14q-77 0 -125 64q39 28 61.5 74.5t22.5 99.5q0 66 -39 104.5t-107 38.5 q-41 0 -75.5 -15t-58.5 -43q-25 -28 -38.5 -66t-13.5 -83q0 -64 30 -123t86 -123q50 -59 108 -117q135 -140 191 -273q33 -79 33 -174q0 -100 -41 -185.5t-117 -148.5q-76 -64 -177 -99t-216 -35q-98 0 -177 25.5z" />
<glyph unicode="T" horiz-adv-x="985" d="M612 1356h-24q-182 0 -274 -83q-111 -100 -111 -331q0 -64 14 -102q4 -13 10 -23q4 -7 4 -14q-111 0 -162 44q-57 48 -57 154t39.5 201.5t120.5 167.5q87 78 221.5 121t317.5 43q105 0 201 -12q30 -3 78 -11q80 -15 154 -20q36 -4 91 -4q68 0 130 12t108 31 q-5 -134 -68.5 -197t-187.5 -63q-67 0 -135 11t-183 34l-283 -1315h-294z" />
<glyph unicode="U" horiz-adv-x="1466" d="M421 85q-103 99 -103 294q0 97 29 215l209 831q-88 -23 -158 -67t-119 -103q-47 -56 -71.5 -122.5t-24.5 -136.5q0 -103 53 -196q-117 0 -181.5 57t-64.5 162q0 67 28.5 132.5t81.5 125.5q50 58 122 107t159 85q182 75 379 75q69 0 115 -10l-250 -946q-35 -128 -35 -221 q0 -195 160 -195q226 0 318 422l204 946h289l-200 -946q-64 -300 -224 -454t-409 -154q-204 0 -307 99z" />
<glyph unicode="V" horiz-adv-x="1260" d="M508 1399q-146 -55 -225.5 -170.5t-79.5 -284.5q0 -64 14 -102q4 -13 10 -23q4 -7 4 -14q-111 0 -162 44q-57 48 -57 155q0 67 29 132.5t82 126.5q50 58 119.5 108.5t150.5 87.5q170 77 338 77q46 0 82 -4l18 -1260l431 1254h143l-569 -1526h-295z" />
<glyph unicode="W" horiz-adv-x="1970" d="M508 1399q-146 -55 -225.5 -170.5t-79.5 -284.5q0 -64 14 -102q4 -13 10 -23q4 -7 4 -14q-111 0 -162 44q-57 48 -57 155q0 67 29 132.5t82 126.5q50 58 119.5 108.5t150.5 87.5q170 77 338 77q46 0 82 -4l18 -1260l431 1254h260l18 -1254l430 1254h144l-570 -1526h-295 l-24 1042l-389 -1042h-295z" />
<glyph unicode="X" horiz-adv-x="1270" d="M659 680l-151 719q-146 -55 -225.5 -170.5t-79.5 -284.5q0 -64 14 -102q4 -13 10 -23q4 -7 4 -14q-111 0 -162 44q-57 48 -57 155q0 67 29 132.5t82 126.5q50 58 119.5 108.5t150.5 87.5q170 77 338 77q46 0 82 -4l88 -426l238 420h143l-344 -596l192 -930h-325l-109 512 l-297 -512h-125z" />
<glyph unicode="Y" horiz-adv-x="1270" d="M705 631l-197 768q-146 -55 -225.5 -170.5t-79.5 -284.5q0 -64 14 -102q4 -13 10 -23q4 -7 4 -14q-111 0 -162 44q-57 48 -57 155q0 67 29 132.5t82 126.5q50 58 119.5 108.5t150.5 87.5q170 77 338 77q46 0 82 -4l178 -733l303 727h136l-398 -895l-135 -631h-328z" />
<glyph unicode="Z" horiz-adv-x="1110" d="M739 1425q-31 0 -81 3q-66 2 -103 2q-85 0 -130 -9q-58 -12 -58 -37q11 0 23 -14q11 -14 11 -51q0 -60 -42 -92q-33 -25 -78 -25q-55 0 -82 39q-23 31 -23 82q0 39 17 77t48 69q70 67 187 67h702l-706 -1403q24 0 94 -2t103 -2q90 0 133 8q31 6 51 14.5t29 22.5 q-11 0 -24 13t-13 51q0 60 41 92q31 26 82 26q52 0 81 -37q23 -32 23 -81q0 -40 -18.5 -82t-51.5 -76q-36 -37 -85 -58.5t-107 -21.5h-739z" />
<glyph unicode="[" horiz-adv-x="819" d="M415 1540h437l-23 -117h-227l-383 -1798h227l-24 -117h-437z" />
<glyph unicode="\" horiz-adv-x="741" d="M86 1536h147l435 -2048h-148z" />
<glyph unicode="]" horiz-adv-x="819" d="M-99 -375h227l383 1798h-227l24 117h437l-430 -2032h-437z" />
<glyph unicode="^" horiz-adv-x="862" d="M537 1536h43l122 -387h-65l-123 164l-321 -164h-91z" />
<glyph unicode="_" horiz-adv-x="909" d="M111 162h716l-34 -162h-719z" />
<glyph unicode="`" horiz-adv-x="412" d="M49 1536h215l60 -387h-113z" />
<glyph unicode="a" horiz-adv-x="1077" d="M57 61q-84 86 -84 256q0 72 14.5 152t42.5 158q64 176 175 284q128 123 295 123q83 0 124.5 -28.5t41.5 -75.5v-15l22 109h295l-147 -696q-9 -30 -9 -66q0 -88 84 -88q56 0 102 57q39 48 64 136h86q-55 -156 -133 -247q-66 -75 -149 -108q-61 -24 -129 -24 q-87 0 -138.5 47.5t-62.5 140.5q-58 -82 -122 -128q-82 -60 -183 -60q-117 0 -189 73zM427.5 198q25.5 12 49.5 34q54 52 72 135l98 462q0 10 -4.5 23.5t-12.5 25.5q-24 29 -67 29q-41 0 -79.5 -27t-72.5 -75q-60 -87 -99 -227q-18 -62 -27 -122.5t-9 -109.5q0 -102 38 -138 q13 -14 29 -18t36 -4q23 0 48.5 12z" />
<glyph unicode="b" horiz-adv-x="909" d="M59 56.5q-73 68.5 -73 193.5q0 67 14 117l219 1026l303 41l-98 -461q59 36 100 48q30 9 68 9q115 0 175 -77q67 -87 67 -273q0 -64 -12 -138.5t-37 -147.5q-60 -175 -174 -280q-138 -126 -339 -126q-140 0 -213 68.5zM509 269q52 74 86 194q32 118 32 225q0 83 -26 136 q-14 29 -35 45t-48 16q-35 0 -63 -7q-42 -11 -58 -30l-112 -520q-6 -25 -6 -47q0 -95 108 -95q62 0 122 83z" />
<glyph unicode="c" horiz-adv-x="786" d="M60 64q-87 81 -87 249q0 63 12.5 140.5t38.5 154.5q61 187 173 298q138 136 327 136q123 0 182 -59q46 -47 46 -129q0 -72 -32 -112q-30 -37 -77 -37q-34 0 -72 24q25 65 25 121q0 39 -14.5 61.5t-42.5 22.5q-60 0 -125 -106q-59 -94 -98 -239q-40 -142 -40 -257 q0 -100 38 -138q33 -34 110 -34q111 0 203 60q39 25 75 59.5t84 87.5h70q-97 -164 -223 -261q-155 -118 -340 -118q-151 0 -233 76z" />
<glyph unicode="d" horiz-adv-x="1075" d="M57 61q-84 86 -84 256q0 72 14.5 152t42.5 158q64 176 175 284q128 123 295 123q83 0 124.5 -28.5t41.5 -75.5v-8l100 471l303 41l-235 -1106q-9 -30 -9 -66q0 -42 20 -59t64 -17q57 0 102 51q38 45 64 130h86q-54 -154 -133 -243q-67 -74 -149 -103q-59 -21 -129 -21 q-85 0 -137 45t-64 131q-55 -83 -119 -128q-83 -60 -184 -60q-117 0 -189 73zM426.5 197q25.5 11 48.5 31q54 49 72 128v11l100 469q-7 28 -20 45q-21 26 -64 26q-41 0 -79.5 -27t-72.5 -75q-60 -87 -99 -227q-18 -62 -27 -122.5t-9 -109.5q0 -102 38 -138q13 -14 29 -18 t36 -4q22 0 47.5 11z" />
<glyph unicode="e" horiz-adv-x="786" d="M60 64q-87 81 -87 249q0 63 12.5 140t37.5 154q28 86 71.5 163t101.5 136q134 136 330 136q125 0 182 -60q44 -47 44 -136q0 -87 -38 -163.5t-105 -135.5q-67 -58 -152 -92.5t-176 -40.5q-5 -52 -5 -82q0 -100 38 -138q33 -34 110 -34q111 0 203 60q39 25 75 59.5 t84 87.5h70q-97 -164 -223 -261q-155 -118 -340 -118q-151 0 -233 76zM408 545q54 29 96 76q42 48 66 107.5t24 121.5q0 41 -11.5 62.5t-39.5 21.5q-37 0 -74.5 -36t-72.5 -99q-32 -59 -58 -134t-41 -153q57 4 111 33z" />
<glyph unicode="f" horiz-adv-x="547" d="M-273.5 -496q-43.5 16 -77.5 45q-35 31 -55 71.5t-20 88.5q0 69 26.5 118t76.5 85q44 31 102.5 54.5t146.5 49.5l248 1170q38 195 159 284q87 64 214 64q46 0 89.5 -16t77.5 -45q35 -31 54.5 -71.5t19.5 -88.5t-6 -84h-96q4 31 4 55q0 34 -22.5 52t-55.5 18 q-41 0 -77 -32q-48 -43 -66 -136l-35 -162h150l-15 -82h-151l-236 -1106q-39 -195 -155 -284q-85 -64 -211 -64q-46 0 -89.5 16zM-166 -296q32 39 51 126l27 119q-109 -36 -161 -80q-64 -54 -64 -131q0 -27 23 -45q27 -23 59 -23q36 0 65 34z" />
<glyph unicode="g" horiz-adv-x="1038" d="M272.5 -499.5q-41.5 12.5 -71.5 37.5q-32 25 -50 62.5t-18 86.5q0 116 109 199q82 61 225 106l25 108q-105 -112 -246 -112q-117 0 -189 73q-84 86 -84 256q0 72 14.5 152t42.5 158q64 176 175 284q128 123 295 123q83 0 124.5 -28.5t41.5 -75.5v-12l22 106h295 l-203 -950q97 32 155 96q63 69 103 197h86q-55 -182 -164 -281q-80 -72 -198 -102l-31 -148q-39 -196 -156 -284q-85 -64 -213 -64q-48 0 -89.5 12.5zM472 227q53 46 71 119l104 485q0 10 -4.5 23t-12.5 24q-24 29 -67 29q-41 0 -79.5 -27t-72.5 -75q-60 -87 -99 -227 q-18 -62 -27 -122.5t-9 -109.5q0 -102 38 -138q13 -14 29 -18t36 -4q44 0 93 41zM381 -307q34 44 53 137l12 59q-93 -35 -139 -71q-61 -46 -61 -103q0 -27 17 -45q19 -22 52 -22q32 0 66 45z" />
<glyph unicode="h" d="M551 60q-53 62 -53 159q0 46 11.5 107t34.5 157q23 98 34.5 156.5t11.5 101.5q0 105 -74 105q-52 0 -96 -55q-37 -47 -64 -134l-139 -657h-295l297 1393l303 41l-110 -516q60 67 129 94q51 20 110 20q104 0 164 -54q64 -59 64 -177q0 -71 -26 -185q-7 -33 -23 -99 q-29 -111 -42 -177q-8 -42 -8 -68q0 -41 18.5 -63.5t63.5 -22.5q61 0 103 50q32 38 69 131h86q-76 -225 -192 -315q-82 -64 -189 -64q-127 0 -188 72z" />
<glyph unicode="i" horiz-adv-x="547" d="M279 1147.5q-30 12.5 -52 34.5q-22 21 -34.5 51t-12.5 63t12.5 63t34.5 53t52 35.5t63 12.5t63 -12.5t53 -35.5t35.5 -53t12.5 -63t-12.5 -63t-35.5 -51q-23 -22 -53 -34.5t-63 -12.5t-63 12.5zM48 46q-64 64 -64 187q0 58 16 134l139 657h295l-147 -696q-8 -26 -8 -66 q0 -42 19.5 -59t63.5 -17q30 0 58.5 13.5t52.5 37.5q49 49 74 130h86q-55 -155 -138 -247q-70 -75 -158 -108q-64 -24 -134 -24q-98 0 -155 58z" />
<glyph unicode="j" horiz-adv-x="492" d="M263 1149.5q-30 12.5 -52 34.5q-22 21 -34.5 51t-12.5 63t12.5 63.5t34.5 52.5t52 35t63 13t63 -13t52 -35t35 -52.5t13 -63.5t-13 -62.5t-35 -51.5t-52 -34.5t-63 -12.5t-63 12.5zM-345 -462q-33 25 -51 62.5t-18 86.5q0 115 110 198q81 62 226 107l219 1032h295 l-203 -950q97 32 155 96q62 68 104 197h86q-55 -182 -164 -281q-81 -73 -199 -102l-31 -148q-39 -195 -155 -284q-85 -64 -213 -64q-97 0 -161 50zM-166 -307q34 44 53 137l13 59q-95 -36 -140 -71q-61 -46 -61 -103q0 -27 17 -45q20 -22 53 -22q32 0 65 45z" />
<glyph unicode="k" horiz-adv-x="1061" d="M577.5 48q-65.5 60 -65.5 173q0 49 12 107l17 80q8 31 8 75q0 48 -17 73.5t-57 25.5q-33 0 -69 -19t-82 -57l-107 -506h-295l297 1393l303 41l-153 -721l395 311h203l-410 -285q35 9 68 9q56 0 98.5 -18.5t71.5 -52.5q27 -32 41 -75.5t14 -93.5q0 -47 -8 -78l-23 -102 q-10 -33 -10 -66q0 -35 18 -55.5t62 -20.5q61 0 103 50q32 38 69 131h86q-75 -227 -197 -318q-80 -61 -180 -61q-127 0 -192.5 60z" />
<glyph unicode="l" horiz-adv-x="547" d="M48 46q-64 64 -64 187q0 58 16 134l219 1026l303 41l-235 -1106q-8 -26 -8 -66q0 -42 19.5 -59t63.5 -17q30 0 58.5 13.5t52.5 37.5q49 49 74 130h86q-55 -155 -138 -247q-70 -75 -158 -108q-64 -24 -134 -24q-98 0 -155 58z" />
<glyph unicode="m" horiz-adv-x="1540" d="M1057 60q-53 62 -53 159q0 46 11.5 107t34.5 157q23 98 34.5 156.5t11.5 101.5q0 105 -74 105q-52 0 -96 -55q-37 -47 -64 -134l-139 -657h-295l150 707q6 24 6 51q0 41 -13 63q-17 27 -49 27q-58 0 -101 -56q-38 -48 -65 -135l-139 -657h-295l217 1024h295l-22 -106 q60 67 131 95q56 21 119 21q86 0 137 -40q57 -45 73 -136q66 102 152 144q61 30 133 30q103 0 163 -54q64 -59 64 -177q0 -67 -25 -185q-10 -49 -24 -99q-25 -96 -41 -177q-8 -42 -8 -68q0 -41 18.5 -63.5t63.5 -22.5q61 0 103 50q32 38 69 131h86q-76 -225 -192 -315 q-82 -64 -189 -64q-127 0 -188 72z" />
<glyph unicode="n" d="M551 60q-53 62 -53 159q0 46 11.5 107t34.5 157q23 98 34.5 156.5t11.5 101.5q0 105 -74 105q-52 0 -96 -55q-37 -47 -64 -134l-139 -657h-295l217 1024h295l-22 -106q60 67 129 94q51 20 110 20q104 0 164 -54q64 -59 64 -177q0 -71 -26 -185q-7 -33 -23 -99 q-29 -111 -42 -177q-8 -42 -8 -68q0 -41 18.5 -63.5t63.5 -22.5q61 0 103 50q32 38 69 131h86q-76 -225 -192 -315q-82 -64 -189 -64q-127 0 -188 72z" />
<glyph unicode="o" horiz-adv-x="899" d="M64 66q-93 82 -93 249q0 63 13 139.5t40 154.5q62 186 177 297q139 136 331 136q263 0 263 -327v-2q6 -2 10 -2h12q68 0 161 38q82 34 155 85l18 -56q-60 -63 -154.5 -107t-208.5 -63q-12 -139 -54 -253.5t-108 -196.5q-65 -80 -149 -123t-178 -43q-152 0 -235 74z M454.5 208.5q37.5 32.5 70.5 90.5t57 136t36 167q-30 8 -42.5 30t-12.5 56q0 42 17 70t47 41q-4 65 -21 93q-9 14 -22.5 20t-34.5 6q-69 0 -135 -104q-61 -94 -100 -232q-38 -135 -38 -240q0 -51 5.5 -83t18.5 -50q12 -18 31 -25.5t50 -7.5q36 0 73.5 32.5z" />
<glyph unicode="p" horiz-adv-x="958" d="M156 1100h295l-33 -154q104 88 239 88q115 0 178 -70q72 -82 72 -253q0 -165 -42 -310q-53 -185 -154 -287q-124 -126 -308 -126q-71 0 -117 22q-35 16 -57 51l-106 -499l-309 -74zM510 267q56 79 90 222q27 115 27 228q0 101 -37 144q-24 26 -66 26q-37 0 -75 -26 t-66 -75l-121 -573q7 -20 26.5 -33.5t51.5 -13.5q99 0 170 101z" />
<glyph unicode="q" horiz-adv-x="995" d="M489 100q-105 -112 -243 -112q-117 0 -189 73q-84 86 -84 256q0 72 14.5 152t42.5 158q64 176 175 284q128 123 295 123q83 0 124.5 -28.5t41.5 -75.5v-4l20 98h295l-311 -1462l-310 -74zM467 223q49 41 72 109l108 506q-7 28 -21 44q-23 25 -63 25q-41 0 -79.5 -27 t-72.5 -75q-60 -87 -99 -227q-18 -62 -27 -122.5t-9 -109.5q0 -102 38 -138q13 -14 29 -18t36 -4q43 0 88 37z" />
<glyph unicode="r" horiz-adv-x="770" d="M139 1024h295l-26 -127q70 62 114 88q68 39 133 39q66 0 106 -47q18 -21 27 -48.5t9 -58.5q0 -28 -9 -54t-27 -47q-20 -22 -48.5 -35t-63.5 -13q-27 0 -43 9t-25 26q-8 17 -11 33q-9 43 -18 57q-7 10 -22 10q-43 0 -73 -18t-76 -60l-164 -778h-295z" />
<glyph unicode="s" horiz-adv-x="782" d="M102 10.5q-57 22.5 -96 62.5q-36 37 -54 82.5t-18 94.5q0 67 34 121q30 48 75 69q80 142 139 288t113 319l303 40q12 -260 22 -399q10 -143 17 -210q6 -78 6 -136q0 -52 -8 -78q92 54 147 103h86q-73 -85 -150.5 -146t-162.5 -110q-61 -64 -153 -95q-80 -28 -169 -28 q-74 0 -131 22.5zM291 192q55 50 55 148q0 41 -5 103l-5 61q-9 79 -18 183l-11 138q-29 -93 -69 -184.5t-97 -202.5q47 -26 47 -71q0 -40 -24 -69q-26 -32 -66 -32q-20 0 -33.5 5.5t-21.5 21.5q0 -74 29 -108.5t96 -34.5q77 0 123 42z" />
<glyph unicode="t" horiz-adv-x="547" d="M48 46q-64 64 -64 187q0 58 16 134l123 575h-68l17 82h67l62 283l303 41l-70 -324h123l-16 -82h-123l-131 -614q-8 -26 -8 -66q0 -42 19.5 -59t63.5 -17q30 0 58.5 13.5t52.5 37.5q49 49 74 130h86q-55 -155 -138 -247q-70 -75 -158 -108q-64 -24 -134 -24q-98 0 -155 58 z" />
<glyph unicode="u" d="M48 46q-64 64 -64 187q0 58 16 134l139 657h295l-147 -696q-6 -31 -6 -58q0 -84 61 -84q56 0 101 51q36 43 63 130l139 657h295l-147 -696q-9 -30 -9 -66q0 -42 20 -59t64 -17q57 0 102 51q40 45 64 130h86q-55 -156 -133 -247q-66 -75 -149 -108q-61 -24 -129 -24 q-88 0 -140 49t-63 145q-70 -112 -158 -160q-63 -34 -145 -34q-98 0 -155 58z" />
<glyph unicode="v" horiz-adv-x="848" d="M48 48.5q-66 60.5 -66 180.5q0 50 10 99l147 696h295l-147 -696q-11 -49 -11 -74q0 -32 17 -50t53 -18q48 0 94 34t87 94q38 55 70.5 128t55.5 151q22 76 34.5 148.5t12.5 128.5q-4 -9 -29 -15q-16 -5 -36 -5q-35 0 -55 34q-19 29 -19 70q0 50 32 80.5t95 30.5 q68 0 101 -55q28 -46 28 -123q0 -85 -14.5 -184t-43.5 -195q-70 -228 -189 -359q-144 -161 -337 -161q-119 0 -185 60.5z" />
<glyph unicode="w" horiz-adv-x="1354" d="M48 46q-64 64 -64 187q0 58 16 134l139 657h295l-147 -696q-6 -25 -6 -52q0 -39 13 -62q15 -28 48 -28q56 0 101 51q36 43 63 130l139 657h295l-147 -696q-11 -52 -11 -74q0 -32 17 -50t53 -18q48 0 94 34t87 94q38 55 70.5 128t55.5 151q22 76 34.5 148.5t12.5 128.5 q-4 -9 -29 -15q-16 -5 -36 -5q-35 0 -55 34q-19 29 -19 70q0 50 32 80.5t95 30.5q68 0 101 -55q28 -46 28 -123q0 -85 -14.5 -184t-43.5 -195q-70 -228 -189 -359q-144 -161 -337 -161q-101 0 -164 43t-81 129q-65 -99 -152 -141q-62 -31 -139 -31q-98 0 -155 58z" />
<glyph unicode="x" horiz-adv-x="1069" d="M582 72q-67 92 -95 272l-282 -344h-148l414 467l-33 229q-16 99 -34 137q-16 33 -44 33q-31 0 -66.5 -31t-72.5 -92q-85 -141 -135 -376h-86q40 177 94 308q65 162 156 254q105 105 233 105q110 0 169 -82q43 -61 53 -161l18 -156q87 97 130 167.5t48 127.5 q-20 -4 -35 -4q-50 0 -74 34q-22 28 -22 80q0 49 42 78q36 23 97 23q27 0 49 -16t37 -43q14 -27 21.5 -60.5t7.5 -67.5q0 -47 -17 -94.5t-53 -99.5q-33 -48 -82.5 -105t-132.5 -147l19 -143q12 -98 43 -140q28 -39 84 -39q59 0 110 51q49 49 74 130h86q-74 -214 -205 -309 q-97 -70 -213 -70q-94 0 -155 84z" />
<glyph unicode="y" horiz-adv-x="995" d="M229.5 -499.5q-41.5 12.5 -71.5 37.5q-32 25 -50 62.5t-18 86.5q0 116 109 199q82 61 225 106l25 110q-60 -66 -130 -93q-54 -21 -116 -21q-98 0 -155 58q-64 64 -64 187q0 58 16 134l139 657h295l-147 -696q-6 -25 -6 -52q0 -39 13 -62q15 -28 48 -28q54 0 97 48 q37 41 63 120l143 670h295l-203 -950q97 32 155 96q63 69 103 197h86q-55 -182 -164 -281q-80 -72 -198 -102l-31 -148q-39 -196 -156 -284q-85 -64 -213 -64q-48 0 -89.5 12.5zM338 -307q34 44 53 137l12 59q-93 -35 -139 -71q-61 -46 -61 -103q0 -27 17 -45q19 -22 52 -22 q31 0 66 45z" />
<glyph unicode="z" horiz-adv-x="877" d="M522 913h-114q-55 0 -80 -5q-33 -6 -33 -27q0 -5 4 -6q8 -2 15 -14q3 -7 3 -25q0 -54 -34 -83q-32 -26 -76 -26q-36 0 -64 23q-30 25 -30 67q0 32 17 68.5t47 66.5q32 33 76.5 52.5t96.5 19.5h527l-502 -866l70 -7q42 -6 85 -6q42 0 67 9t30 32q-20 2 -29.5 13.5 t-9.5 29.5q0 15 7.5 30.5t21.5 28.5q34 29 85 29q46 0 68.5 -27t22.5 -71q0 -36 -17 -74.5t-49 -70.5q-34 -34 -80.5 -54t-103.5 -20h-543z" />
<glyph unicode="{" horiz-adv-x="721" d="M174 -446q-39 32 -59 77t-20 101q0 41 10 92t28 121l7 26q22 76 28 95q43 143 62 234q11 57 11 97q0 42 -18 58t-66 16h-64l21 104h65q37 0 62 13t42 43q32 55 37 192q9 213 33 348t70 216q46 82 120.5 117.5t188.5 35.5h88l-18 -102q-53 0 -87 -8t-59 -31 q-26 -24 -43.5 -68t-31.5 -117q-23 -122 -48 -434q-6 -54 -17.5 -91.5t-33.5 -65.5q-23 -28 -59.5 -51.5t-93.5 -47.5q63 -29 88.5 -65t25.5 -94q0 -60 -28 -176l-26 -103q-31 -115 -46 -209q-8 -54 -8 -96q0 -90 34 -141.5t97 -59.5l-19 -92h-59q-134 0 -214 66z" />
<glyph unicode="|" horiz-adv-x="1090" d="M449 1538h190v-2050h-190v2050z" />
<glyph unicode="}" horiz-adv-x="721" d="M-115 -410q52 0 86 8t59 31q26 24 44 68t32 117q13 68 23.5 168.5t23.5 265.5q4 53 16 90.5t36 66.5q23 29 59.5 52t93.5 47q-61 28 -89 65q-26 34 -26 95q0 49 13.5 112t41.5 167q26 100 40 171.5t14 132.5q0 89 -34.5 141t-97.5 60l19 92h59q135 0 214 -65 q38 -32 58.5 -77.5t20.5 -101.5q0 -79 -37 -212l-35 -122q-47 -155 -62 -234q-11 -57 -11 -97q0 -42 18 -58t66 -16h63l-20 -104h-66q-37 0 -62 -13t-42 -42q-33 -57 -37 -193q-9 -213 -33 -348t-70 -216q-47 -82 -121.5 -117.5t-187.5 -35.5h-88z" />
<glyph unicode="~" horiz-adv-x="883" d="M505 1175q-41 10 -94 28q-58 20 -91.5 29t-71.5 9q-76 0 -135 -53l-13 4q50 99 137.5 150t204.5 51q49 0 90 -9t91 -25q54 -18 86 -26t71 -8t72.5 12t56.5 35l13 -2q-8 -36 -38.5 -72.5t-75.5 -65.5q-47 -31 -103.5 -49t-112.5 -18q-46 0 -87 10z" />
<glyph unicode="&#xa2;" horiz-adv-x="786" d="M279 209q-127 34 -195 134.5t-68 256.5q0 115 38.5 222.5t107.5 194.5q69 86 159.5 143.5t192.5 75.5l53 234h105l-52 -225q112 -4 175 -55t63 -139q0 -71 -37 -119q-18 -23 -41.5 -36t-50.5 -13t-52 12t-40 33q14 24 25 63q10 34 10 70q0 39 -19 57t-58 19l-175 -763 q23 -3 49 -3q65 0 115 23.5t98 76.5q16 -41 16 -80q0 -45 -20.5 -81.5t-58.5 -62.5q-81 -54 -211 -54h-15q-9 0 -14 1l-57 -249h-103zM484 1106q-48 -28 -89 -76t-71 -112q-31 -64 -47.5 -139t-16.5 -154q0 -150 66 -210z" />
<glyph unicode="&#xa3;" horiz-adv-x="932" d="M630.5 -4q-43.5 8 -109.5 25q-66 16 -114 24t-102 8q-113 0 -260 -43l-18 84q49 29 92 104q42 72 65 175l82 383h-196l28 102h190l70 322q18 88 60 159.5t102 122.5q58 49 131 75t154 26q112 0 180 -53q70 -56 70 -154q0 -36 -10 -68.5t-29 -56.5q-41 -53 -109 -53 q-32 0 -57 16t-37 39q16 24 29 62q12 41 12 73q0 42 -15 64t-42 22q-53 0 -93 -67q-39 -65 -71 -207l-70 -322h291l-29 -102h-284l-64 -297q-15 -67 -47.5 -113t-91.5 -78l6 -8q29 11 53.5 13.5t65.5 2.5q37 0 71 -5.5t83 -16.5q45 -11 81 -17t74 -6q61 0 108 25t95 82l6 -2 q27 -61 27 -127q0 -100 -78 -161q-38 -29 -91.5 -44.5t-119.5 -15.5q-45 0 -88.5 8z" />
<glyph unicode="&#xa5;" horiz-adv-x="1143" d="M375 291h-203l29 102h196l29 133h-203l29 103h197l-230 907h336l180 -739l307 739h136l-402 -907h268l-28 -103h-262l-29 -133h268l-28 -102h-263l-61 -291h-328z" />
<glyph unicode="&#xa8;" horiz-adv-x="803" d="M151 1210q-36 36 -36 88q0 24 9.5 47t26.5 41q35 37 89 37q49 0 88 -37q17 -17 27 -40t10 -48q0 -53 -37 -88q-39 -36 -88 -36q-53 0 -89 36zM519 1210q-36 34 -36 88q0 25 9.5 48t26.5 40q37 37 89 37q25 0 48 -10t40 -27t27 -40t10 -48q0 -53 -37 -88 q-18 -17 -41 -26.5t-47 -9.5q-51 0 -89 36z" />
<glyph unicode="&#xa9;" horiz-adv-x="1202" d="M409.5 196.5q-90.5 40.5 -159.5 112.5t-107.5 167.5t-38.5 201.5q0 108 38.5 203.5t107.5 168.5q68 72 158.5 112t191.5 40q99 0 190 -39.5t159 -110.5q69 -72 108 -168t39 -204t-39 -203.5t-108 -168.5q-68 -72 -159 -112t-190 -40q-100 0 -190.5 40.5zM759.5 275 q73.5 33 129.5 93t87.5 140t31.5 170t-31.5 170.5t-87.5 140.5q-56 59 -129.5 92t-155.5 33q-83 0 -156.5 -33t-129.5 -92q-56 -60 -87.5 -140.5t-31.5 -170.5t31.5 -170t87.5 -140t129.5 -93t156.5 -33q82 0 155.5 33zM495 398q-54 25 -96 69q-41 44 -64.5 101t-23.5 120 q0 64 23.5 120t66.5 97q42 41 97 63.5t116 22.5q48 -2 90.5 -17t75.5 -41q33 -25 55.5 -60.5t32.5 -75.5l-96 -37q-10 31 -17.5 48t-21.5 33q-39 44 -115 44q-83 0 -136 -46q-58 -52 -58 -141q0 -45 15 -85t42 -70q27 -31 62 -47.5t75 -16.5q48 0 89.5 24.5t64.5 67.5 l90 -59q-43 -66 -109.5 -102.5t-142.5 -36.5q-61 0 -115 25z" />
<glyph unicode="&#xab;" horiz-adv-x="1206" d="M41 487l18 84l629 308l-20 -113l-494 -246l397 -196l-24 -117zM471 487l18 84l629 308l-20 -113l-494 -246l397 -196l-24 -117z" />
<glyph unicode="&#xad;" horiz-adv-x="594" d="M76 616h409l-34 -161h-412z" />
<glyph unicode="&#xae;" horiz-adv-x="1133" d="M375 202.5q-90 40.5 -159 112.5t-107.5 167.5t-38.5 201.5q0 108 38.5 203.5t107.5 168.5q69 72 158.5 112t190.5 40q100 0 190 -39t159 -111q70 -72 108.5 -167.5t38.5 -204.5q0 -108 -38.5 -203.5t-108.5 -168.5q-69 -72 -159 -112t-190 -40t-190 40.5zM724.5 281 q73.5 33 129.5 93t87.5 140t31.5 170t-31.5 170.5t-87.5 140.5q-56 59 -129.5 92t-155.5 33q-83 0 -156.5 -33t-129.5 -92q-56 -60 -87.5 -140.5t-31.5 -170.5t31.5 -170t87.5 -140t129.5 -93t156.5 -33q82 0 155.5 33zM590 645h-135v-252h-95l2 596h193q110 0 178 -43 q33 -22 50.5 -55t17.5 -74q0 -56 -33 -98t-88 -60l133 -256l-96 -14zM561 723q58 0 96 17q50 21 50 73q0 49 -50 73q-39 19 -100 19h-102v-182h106z" />
<glyph unicode="&#xb4;" horiz-adv-x="647" d="M432 1536h215l-289 -387h-112z" />
<glyph unicode="&#xb8;" horiz-adv-x="465" d="M99 -438.5q-54 24.5 -89 69.5l35 56q30 -28 69.5 -45t78.5 -17q45 0 73.5 23.5t28.5 60.5q0 32 -23.5 52t-62.5 20q-53 0 -100 -25l-9 8l117 295l88 -6l-76 -188q41 12 64.5 16t44.5 4q68 0 107.5 -36.5t39.5 -98.5q0 -43 -21 -81.5t-59 -68.5q-37 -30 -86.5 -46.5 t-103.5 -16.5q-62 0 -116 24.5z" />
<glyph unicode="&#xbb;" horiz-adv-x="1200" d="M59 324l492 196l-397 246l18 113l504 -308l-23 -110l-622 -254zM514 324l492 196l-398 246l19 113l503 -308l-22 -110l-623 -254z" />
<glyph unicode="&#xc2;" horiz-adv-x="1368" d="M1398 2048h43l123 -387h-66l-123 164l-321 -164h-90zM348 -228q-42 5 -79 24q-97 47 -97 188q0 68 21.5 163t61.5 205q88 242 218 465q-102 -6 -161.5 -30.5t-78.5 -75.5q9 0 18 -21t9 -43q0 -36 -33 -58t-82 -22q-55 0 -90 30q-37 31 -37 89q0 51 31 97.5t88 80.5 q58 35 134.5 54.5t164.5 19.5q43 0 107 -6q172 271 344 425q200 179 368 179q100 0 162 -29l-321 -1507h-295l157 743q-74 34 -138.5 51t-135.5 23q-116 -251 -190 -513q-76 -263 -76 -423q0 -79 28 -114q-56 0 -98 5zM1096 1391q-89 -48 -187 -181q-96 -132 -182 -305 q140 -27 250 -71z" />
<glyph unicode="&#xc4;" horiz-adv-x="1368" d="M967 1722q-36 36 -36 88q0 24 9.5 47t26.5 41q35 37 89 37q24 0 46.5 -9.5t40.5 -27.5q17 -17 27 -40t10 -48q0 -53 -37 -88q-18 -17 -40.5 -26.5t-46.5 -9.5q-53 0 -89 36zM1335 1722q-36 34 -36 88q0 25 9.5 48t26.5 40q37 37 89 37q25 0 48 -10t40 -27t27 -40t10 -48 q0 -53 -37 -88q-18 -17 -41 -26.5t-47 -9.5q-51 0 -89 36zM348 -228q-42 5 -79 24q-97 47 -97 188q0 68 21.5 163t61.5 205q88 242 218 465q-102 -6 -161.5 -30.5t-78.5 -75.5q9 0 18 -21t9 -43q0 -36 -33 -58t-82 -22q-55 0 -90 30q-37 31 -37 89q0 51 31 97.5t88 80.5 q58 35 134.5 54.5t164.5 19.5q43 0 107 -6q172 271 344 425q200 179 368 179q100 0 162 -29l-321 -1507h-295l157 743q-74 34 -138.5 51t-135.5 23q-116 -251 -190 -513q-76 -263 -76 -423q0 -79 28 -114q-56 0 -98 5zM1096 1391q-89 -48 -187 -181q-96 -132 -182 -305 q140 -27 250 -71z" />
<glyph unicode="&#xc7;" horiz-adv-x="1018" d="M369 -429q-48 15 -93 40q17 30 36 47.5t46 17.5q28 0 46.5 -7t38.5 -20q21 -15 34.5 -21.5t32.5 -6.5q24 0 44 27q17 25 17 59q0 32 -19.5 53t-59.5 21q-37 0 -59.5 -6.5t-47.5 -18.5l76 211q-109 3 -187.5 32.5t-130.5 88.5q-53 60 -78.5 154.5t-25.5 228.5 q0 155 36 323q42 195 120 349q91 179 221 279q148 114 338 114q153 0 243 -64q99 -70 99 -210q0 -88 -32 -135q-38 -54 -112 -54q-31 0 -60.5 11t-55.5 42q18 9 35 28.5t30 45.5q29 58 29 115q0 55 -28 87q-33 38 -97 38q-55 0 -108.5 -40.5t-102.5 -114.5q-47 -71 -87 -166 t-68 -202q-28 -108 -44 -220t-16 -214q0 -76 11.5 -133t37.5 -97q57 -89 197 -89q120 0 223 53.5t176 151.5l47 -21q-68 -170 -228 -273q-69 -44 -144.5 -69.5t-149.5 -34.5l-43 -106q63 16 108 16q127 0 127 -102q0 -54 -20.5 -96.5t-56.5 -71.5q-34 -27 -78 -42t-90 -15 q-73 0 -127 17z" />
<glyph unicode="&#xce;" horiz-adv-x="768" d="M783 2048h43l123 -387h-65l-123 164l-322 -164h-90zM489 1391q-138 -57 -212 -170t-74 -277q0 -64 14 -102q4 -13 10 -23q4 -7 4 -14q-111 0 -162 44q-57 48 -57 155q0 67 29 132.5t82 126.5q50 58 119.5 108.5t150.5 87.5q170 77 338 77q46 0 82 -4l-326 -1532h-294z " />
<glyph unicode="&#xd6;" horiz-adv-x="1362" d="M626 1722q-36 36 -36 88q0 24 9.5 47t26.5 41q35 37 89 37q49 0 88 -37q17 -17 27 -40t10 -48q0 -53 -37 -88q-39 -36 -88 -36q-53 0 -89 36zM994 1722q-36 34 -36 88q0 25 9.5 48t26.5 40q37 37 89 37q25 0 48 -10t40 -27t27 -40t10 -48q0 -53 -37 -88 q-18 -17 -41 -26.5t-47 -9.5q-51 0 -89 36zM324 81q-103 103 -103 318q0 85 16 189t46 208q32 111 79.5 212t106.5 177q137 175 307 175q31 0 55.5 -3.5t51.5 -13.5q-89 -52 -176 -226q-80 -161 -131 -363q-52 -203 -52 -363q0 -108 28 -170q30 -67 91 -67q50 0 101.5 39 t101.5 110q48 69 89 160.5t71 195.5q65 224 65 424q0 96 -11 161t-39 108q-30 46 -81 68t-131 22q-117 0 -224 -36.5t-188 -104.5q-84 -71 -131 -169t-47 -217q0 -45 11 -78q3 -13 7 -19q3 -7 3 -13q-102 0 -154.5 40.5t-52.5 131.5q0 141 118 273q116 128 301 205 q195 81 406 81q256 0 377 -147q108 -132 108 -377q0 -103 -19 -217t-57 -224q-42 -120 -103.5 -224t-141.5 -181q-185 -178 -434 -178q-171 0 -264 93z" />
<glyph unicode="&#xdb;" horiz-adv-x="1466" d="M1168 2048h43l122 -387h-65l-123 164l-321 -164h-91zM517.5 7q-75.5 21 -122.5 64q-88 78 -88 240q0 134 51 364q24 109 54 223l63 249l68 270q-169 -44 -265 -164q-98 -124 -98 -307q0 -68 15 -104q3 -11 10 -22q4 -7 4 -15q-107 0 -161 42q-58 45 -58 146 q0 70 29.5 139t83.5 131q52 60 124.5 110t159.5 87q182 76 377 76q26 0 46 -2t52 -8q-61 -224 -86 -318l-70 -257q-67 -248 -90 -360q-30 -139 -30 -220q0 -92 33 -138.5t108 -46.5q50 0 84 7t64 29q32 23 60.5 69.5t58.5 125.5q58 158 129 482l137 633h289l-136 -639 q-37 -173 -69 -295.5t-70 -216.5q-41 -103 -92.5 -176.5t-118.5 -121.5q-69 -49 -157.5 -73t-202.5 -24q-110 0 -185.5 21z" />
<glyph unicode="&#xdc;" horiz-adv-x="1466" d="M810 1722q-36 36 -36 88q0 24 9.5 47t26.5 41q35 37 89 37q49 0 88 -37q17 -17 27 -40t10 -48q0 -53 -37 -88q-39 -36 -88 -36q-53 0 -89 36zM1178 1721q-35 35 -35 89q0 24 9.5 47t26.5 41q35 37 88 37q25 0 48 -10t40 -27t27 -40t10 -48q0 -53 -37 -88 q-18 -17 -41 -26.5t-47 -9.5q-54 0 -89 35zM517.5 7q-75.5 21 -122.5 64q-88 78 -88 240q0 134 51 364q24 109 54 223l63 249l68 270q-169 -44 -265 -164q-98 -124 -98 -307q0 -68 15 -104q3 -11 10 -22q4 -7 4 -15q-107 0 -161 42q-58 45 -58 146q0 70 29.5 139t83.5 131 q52 60 124.5 110t159.5 87q182 76 377 76q26 0 46 -2t52 -8q-61 -224 -86 -318l-70 -257q-67 -248 -90 -360q-30 -139 -30 -220q0 -92 33 -138.5t108 -46.5q50 0 84 7t64 29q32 23 60.5 69.5t58.5 125.5q58 158 129 482l137 633h289l-136 -639q-37 -173 -69 -295.5 t-70 -216.5q-41 -103 -92.5 -176.5t-118.5 -121.5q-69 -49 -157.5 -73t-202.5 -24q-110 0 -185.5 21z" />
<glyph unicode="&#xdf;" horiz-adv-x="984" d="M114 844q62 298 181 444t302 146q122 0 192 -53t70 -146q0 -118 -77 -270q-47 -94 -120 -187q113 -87 174 -202q58 -110 58 -225q0 -74 -25.5 -139.5t-75.5 -114.5q-52 -51 -128.5 -80t-173.5 -29q-78 0 -121 27.5t-43 76.5q0 24 10.5 46.5t28.5 37.5q17 -22 47 -34.5 t66 -12.5q41 0 73 21.5t55 59.5q21 36 32 84.5t11 100.5q0 102 -38 190q-19 44 -48 78.5t-65 55.5q34 37 75 121q45 92 75 183q33 106 33 177q0 107 -79 107q-28 0 -50.5 -21t-43.5 -68q-42 -99 -90 -329l-284 -1327l-309 -74z" />
<glyph unicode="&#xe2;" horiz-adv-x="1077" d="M753 1536h43l123 -387h-65l-123 164l-322 -164h-90zM57 61q-84 86 -84 256q0 72 14.5 152t42.5 158q64 176 175 284q128 123 295 123q83 0 124.5 -28.5t41.5 -75.5v-15l22 109h295l-147 -696q-9 -30 -9 -66q0 -88 84 -88q56 0 102 57q39 48 64 136h86q-55 -156 -133 -247 q-66 -75 -149 -108q-61 -24 -129 -24q-87 0 -138.5 47.5t-62.5 140.5q-58 -82 -122 -128q-82 -60 -183 -60q-117 0 -189 73zM427.5 198q25.5 12 49.5 34q54 52 72 135l98 462q0 10 -4.5 23.5t-12.5 25.5q-24 29 -67 29q-41 0 -79.5 -27t-72.5 -75q-60 -87 -99 -227 q-18 -62 -27 -122.5t-9 -109.5q0 -102 38 -138q13 -14 29 -18t36 -4q23 0 48.5 12z" />
<glyph unicode="&#xe4;" horiz-adv-x="1077" d="M405 1210q-36 36 -36 88q0 24 9.5 47t26.5 41q35 37 89 37q24 0 46.5 -9.5t40.5 -27.5q17 -17 27 -40t10 -48q0 -53 -37 -88q-18 -17 -40.5 -26.5t-46.5 -9.5q-53 0 -89 36zM773 1210q-36 34 -36 88q0 25 9.5 48t26.5 40q37 37 89 37q25 0 48 -10t40 -27t27 -40t10 -48 q0 -53 -37 -88q-18 -17 -41 -26.5t-47 -9.5q-51 0 -89 36zM57 61q-84 86 -84 256q0 72 14.5 152t42.5 158q64 176 175 284q128 123 295 123q83 0 124.5 -28.5t41.5 -75.5v-15l22 109h295l-147 -696q-9 -30 -9 -66q0 -88 84 -88q56 0 102 57q39 48 64 136h86 q-55 -156 -133 -247q-66 -75 -149 -108q-61 -24 -129 -24q-87 0 -138.5 47.5t-62.5 140.5q-58 -82 -122 -128q-82 -60 -183 -60q-117 0 -189 73zM427.5 198q25.5 12 49.5 34q54 52 72 135l98 462q0 10 -4.5 23.5t-12.5 25.5q-24 29 -67 29q-41 0 -79.5 -27t-72.5 -75 q-60 -87 -99 -227q-18 -62 -27 -122.5t-9 -109.5q0 -102 38 -138q13 -14 29 -18t36 -4q23 0 48.5 12z" />
<glyph unicode="&#xe7;" horiz-adv-x="786" d="M253 -429q-50 16 -93 40q17 30 36 47.5t46 17.5q28 0 47 -7t37 -20q21 -15 34.5 -21.5t32.5 -6.5q25 0 44 27q18 26 18 59q0 32 -20 53t-60 21q-37 0 -59.5 -6.5t-47.5 -18.5l84 236q-25 -4 -59 -4q-151 0 -233 76q-87 81 -87 249q0 63 12.5 140.5t38.5 154.5 q61 187 173 298q138 136 327 136q123 0 182 -59q46 -47 46 -129q0 -72 -32 -112q-30 -37 -77 -37q-34 0 -72 24q25 65 25 121q0 39 -14.5 61.5t-42.5 22.5q-60 0 -125 -106q-59 -94 -98 -239q-40 -142 -40 -257q0 -100 38 -138q33 -34 110 -34q111 0 203 60q39 25 75 59.5 t84 87.5h70q-81 -132 -169 -214q-108 -104 -238 -143l-60 -145q63 16 109 16q127 0 127 -102q0 -54 -20.5 -96.5t-56.5 -71.5q-34 -27 -78.5 -42t-90.5 -15q-73 0 -126 17z" />
<glyph unicode="&#xee;" horiz-adv-x="547" d="M436 1536h43l123 -387h-65l-123 164l-322 -164h-90zM48 46q-64 64 -64 187q0 58 16 134l139 657h295l-147 -696q-8 -26 -8 -66q0 -42 19.5 -59t63.5 -17q30 0 58.5 13.5t52.5 37.5q49 49 74 130h86q-55 -155 -138 -247q-70 -75 -158 -108q-64 -24 -134 -24q-98 0 -155 58 z" />
<glyph unicode="&#xf6;" horiz-adv-x="887" d="M251 1210q-36 36 -36 88q0 24 9.5 47t26.5 41q35 37 89 37q25 0 48 -10t40 -27t27 -40t10 -48q0 -53 -37 -88q-18 -17 -41 -26.5t-47 -9.5q-53 0 -89 36zM620 1210q-36 36 -36 88q0 24 9.5 47t26.5 41q35 37 89 37q49 0 88 -37q17 -17 27 -40t10 -48q0 -53 -37 -88 q-39 -36 -88 -36q-53 0 -89 36zM52 66q-93 82 -93 249q0 63 13 139.5t39 154.5q29 86 73 162.5t104 134.5q139 136 332 136q262 0 262 -327v-2q6 -2 10 -2h13q68 0 161 38q82 34 154 85l19 -56q-60 -63 -154.5 -107t-208.5 -63q-12 -139 -54 -253.5t-108 -196.5 q-65 -80 -149 -123t-178 -43q-152 0 -235 74zM442.5 208.5q37.5 32.5 70.5 90.5t57 136t36 167q-30 8 -42.5 30t-12.5 56q0 42 16.5 70t46.5 41q-2 35 -6.5 57t-13.5 36t-22.5 20t-34.5 6q-69 0 -135 -104q-59 -91 -99 -232q-19 -64 -29 -126.5t-10 -113.5t5.5 -83t18.5 -50 q12 -18 31 -25.5t50 -7.5q36 0 73.5 32.5z" />
<glyph unicode="&#xfb;" d="M692 1536h43l123 -387h-65l-123 164l-322 -164h-90zM48 46q-64 64 -64 187q0 58 16 134l139 657h295l-147 -696q-6 -31 -6 -58q0 -84 61 -84q56 0 101 51q36 43 63 130l139 657h295l-147 -696q-9 -30 -9 -66q0 -42 20 -59t64 -17q57 0 102 51q40 45 64 130h86 q-55 -156 -133 -247q-66 -75 -149 -108q-61 -24 -129 -24q-88 0 -140 49t-63 145q-70 -112 -158 -160q-63 -34 -145 -34q-98 0 -155 58z" />
<glyph unicode="&#xfc;" d="M314 1209q-35 35 -35 89q0 24 9.5 47t26.5 41q35 37 88 37q25 0 48 -10t40 -27t27 -40t10 -48q0 -53 -37 -88q-18 -17 -41 -26.5t-47 -9.5q-54 0 -89 35zM683 1210q-36 36 -36 88q0 24 9.5 47t26.5 41q35 37 89 37q25 0 48 -10t40 -27t27 -40t10 -48q0 -53 -37 -88 q-18 -17 -41 -26.5t-47 -9.5q-53 0 -89 36zM48 46q-64 64 -64 187q0 58 16 134l139 657h295l-147 -696q-6 -31 -6 -58q0 -84 61 -84q56 0 101 51q36 43 63 130l139 657h295l-147 -696q-9 -30 -9 -66q0 -42 20 -59t64 -17q57 0 102 51q40 45 64 130h86q-55 -156 -133 -247 q-66 -75 -149 -108q-61 -24 -129 -24q-88 0 -140 49t-63 145q-70 -112 -158 -160q-63 -34 -145 -34q-98 0 -155 58z" />
<glyph unicode="&#x11e;" horiz-adv-x="1184" d="M653.5 1741.5q-79.5 71.5 -79.5 211.5h183q0 -82 42 -126t119 -44q41 0 80 13t70 37q30 24 49.5 54.5t24.5 65.5h176q-9 -59 -46 -110.5t-96 -90.5q-58 -39 -132.5 -60.5t-157.5 -21.5q-153 0 -232.5 71.5zM338 -404q-61 20 -105 57t-68 89t-24 113q0 59 21 110.5 t59 91.5q37 39 88 60.5t108 21.5q79 0 126.5 -38t47.5 -103q0 -49 -22 -78q-19 25 -50.5 39t-66.5 14q-63 0 -100 -40q-39 -41 -39 -107q0 -65 38 -106q37 -42 95 -42q71 0 122 63.5t79 188.5l102 453h-8q-57 -78 -135.5 -119t-171.5 -41q-90 0 -163 36.5t-125 104.5 t-80 164t-28 213q0 113 25.5 217.5t74.5 195.5q98 184 267 288q174 108 381 108q86 0 156.5 -19.5t119.5 -55.5q49 -37 75 -89.5t26 -117.5q0 -87 -43 -141q-21 -26 -50.5 -40t-62.5 -14q-38 0 -72 16.5t-57 47.5q36 24 62 79t26 109q0 62 -35.5 95.5t-101.5 33.5 q-60 0 -118.5 -28t-112.5 -79q-53 -50 -98 -119.5t-77 -150.5q-69 -171 -69 -360q0 -155 48.5 -235.5t141.5 -80.5q112 0 195.5 115.5t136.5 341.5l242 -2l-150 -688q-66 -304 -185 -449q-119 -143 -310 -143q-74 0 -135 20z" />
<glyph unicode="&#x11f;" horiz-adv-x="1038" d="M388.5 1278.5q-79.5 71.5 -79.5 211.5h183q0 -82 42 -126t119 -44q41 0 80 13t70 37q30 24 49.5 54.5t24.5 65.5h176q-9 -59 -46 -110.5t-96 -90.5q-58 -39 -132.5 -60.5t-157.5 -21.5q-153 0 -232.5 71.5zM272.5 -499.5q-41.5 12.5 -71.5 37.5q-32 25 -50 62.5t-18 86.5 q0 116 109 199q82 61 225 106l25 108q-105 -112 -246 -112q-117 0 -189 73q-84 86 -84 256q0 72 14.5 152t42.5 158q64 176 175 284q128 123 295 123q83 0 124.5 -28.5t41.5 -75.5v-12l22 106h295l-203 -950q97 32 155 96q63 69 103 197h86q-55 -182 -164 -281 q-80 -72 -198 -102l-31 -148q-39 -196 -156 -284q-85 -64 -213 -64q-48 0 -89.5 12.5zM472 227q53 46 71 119l104 485q0 10 -4.5 23t-12.5 24q-24 29 -67 29q-41 0 -79.5 -27t-72.5 -75q-60 -87 -99 -227q-18 -62 -27 -122.5t-9 -109.5q0 -102 38 -138q13 -14 29 -18t36 -4 q44 0 93 41zM381 -307q34 44 53 137l12 59q-93 -35 -139 -71q-61 -46 -61 -103q0 -27 17 -45q19 -22 52 -22q32 0 66 45z" />
<glyph unicode="&#x130;" horiz-adv-x="768" d="M668 1695.5q-30 12.5 -52 34.5q-22 21 -34.5 51t-12.5 63t12.5 63.5t34.5 52.5t52 35t63 13t63 -13t53 -35t35.5 -52.5t12.5 -63.5t-12.5 -63t-35.5 -51q-23 -22 -53 -34.5t-63 -12.5t-63 12.5zM489 1391q-138 -57 -212 -170t-74 -277q0 -64 14 -102q4 -13 10 -23 q4 -7 4 -14q-111 0 -162 44q-57 48 -57 155q0 67 29 132.5t82 126.5q50 58 119.5 108.5t150.5 87.5q170 77 338 77q46 0 82 -4l-326 -1532h-294z" />
<glyph unicode="&#x131;" horiz-adv-x="547" d="M48 46q-64 64 -64 187q0 58 16 134l139 657h295l-147 -696q-8 -26 -8 -66q0 -42 19.5 -59t63.5 -17q30 0 58.5 13.5t52.5 37.5q49 49 74 130h86q-55 -155 -138 -247q-70 -75 -158 -108q-64 -24 -134 -24q-98 0 -155 58z" />
<glyph unicode="&#x15e;" horiz-adv-x="1167" d="M379 -438.5q-54 24.5 -89 69.5l35 56q30 -28 69.5 -45t78.5 -17q45 0 73.5 23.5t28.5 60.5q0 32 -23.5 52t-62.5 20q-53 0 -100 -25l-9 8l79 200q-89 6 -161 33.5t-123 74.5q-52 47 -79 110.5t-27 139.5q0 67 21.5 126.5t60.5 103.5t91 68.5t110 24.5q72 0 121 -36 t61 -99q-107 0 -170 -57q-30 -27 -46.5 -66t-16.5 -86q0 -90 52.5 -142.5t141.5 -52.5q53 0 99 19.5t80 53.5t52.5 81.5t18.5 101.5q0 100 -68 208q-27 42 -59.5 82.5t-90.5 107.5q-52 60 -87 104t-63 90q-68 111 -68 218q0 80 34 148.5t97 119.5t147 79t181 28 q165 0 265 -78q48 -38 73.5 -91t25.5 -118q0 -85 -43 -139q-20 -26 -49.5 -40t-62.5 -14q-77 0 -125 64q39 28 61.5 74.5t22.5 99.5q0 66 -39 104.5t-107 38.5q-41 0 -75.5 -15t-58.5 -43q-25 -28 -38.5 -66t-13.5 -83q0 -64 30 -123t86 -123q50 -59 108 -117 q135 -140 191 -273q33 -79 33 -174q0 -94 -37 -176t-106 -145q-68 -63 -160.5 -100.5t-199.5 -44.5l-40 -100q41 12 64.5 16t44.5 4q68 0 107.5 -36.5t39.5 -98.5q0 -43 -21 -81.5t-59 -68.5q-37 -30 -86.5 -46.5t-103.5 -16.5q-62 0 -116 24.5z" />
<glyph unicode="&#x15f;" horiz-adv-x="782" d="M69 -438.5q-54 24.5 -89 69.5l35 56q30 -28 69.5 -45t78.5 -17q45 0 73.5 23.5t28.5 60.5q0 32 -23.5 52t-62.5 20q-53 0 -100 -25l-9 8l91 230q-110 18 -172 97q-27 35 -41 76t-14 83q0 67 34 121q30 48 75 69q80 142 139 288t113 319l303 40q12 -260 22 -399 q10 -143 17 -210q6 -78 6 -136q0 -52 -8 -78q92 54 147 103h86q-73 -85 -150.5 -146t-162.5 -110q-54 -58 -146 -93q-75 -28 -161 -30l-49 -123q41 12 64.5 16t44.5 4q68 0 107.5 -36.5t39.5 -98.5q0 -43 -21 -81.5t-59 -68.5q-37 -30 -86.5 -46.5t-103.5 -16.5 q-62 0 -116 24.5zM291 192q55 50 55 148q0 41 -5 103l-5 61q-9 79 -18 183l-11 138q-29 -93 -69 -184.5t-97 -202.5q47 -26 47 -71q0 -40 -24 -69q-26 -32 -66 -32q-20 0 -33.5 5.5t-21.5 21.5q0 -74 29 -108.5t96 -34.5q77 0 123 42z" />
<glyph unicode="&#x2c6;" horiz-adv-x="600" d="M434 1536h43l123 -387h-65l-123 164l-322 -164h-90z" />
<glyph unicode="&#x2da;" horiz-adv-x="319" d="M41 1169q-41 39 -41 105q0 39 13.5 73t37.5 59q25 25 56.5 39.5t66.5 14.5q68 0 108 -42.5t40 -114.5q0 -79 -46 -125q-23 -23 -54.5 -35.5t-69.5 -12.5q-70 0 -111 39zM221 1305q0 27 -13 42t-36 15q-28 0 -47 -22t-19 -58q0 -23 14 -37t38 -14q63 0 63 74z" />
<glyph unicode="&#x2dc;" horiz-adv-x="825" d="M483 1174.5q-40 9.5 -94 28.5q-57 20 -91.5 29t-72.5 9q-76 0 -135 -53l-12 4q49 99 136.5 150t205.5 51q49 0 89 -8.5t91 -25.5q54 -18 86 -26t72 -8q39 0 72.5 12t56.5 35l12 -2q-8 -36 -38.5 -72.5t-75.5 -65.5q-46 -31 -103 -49t-113 -18q-46 0 -86 9.5z" />
<glyph unicode="&#x401;" horiz-adv-x="940" d="M523 1722q-36 34 -36 88q0 25 9.5 48t26.5 40q37 37 89 37q25 0 48 -10t40 -27t27 -40t10 -48q0 -53 -37 -88q-18 -17 -41 -26.5t-47 -9.5q-51 0 -89 36zM892 1722q-36 36 -36 88q0 24 9.5 47t26.5 41q35 37 89 37q25 0 48 -10t40 -27t27 -40t10 -48q0 -53 -37 -88 q-18 -17 -41 -26.5t-47 -9.5q-53 0 -89 36zM223 -8.5q-72 28.5 -119 80.5q-45 49 -67.5 114t-22.5 138q0 81 26 165.5t75 157.5q50 76 120.5 130t157.5 77q-64 46 -94.5 110t-30.5 136q0 79 33.5 157.5t93.5 141.5q62 66 144.5 103.5t177.5 37.5q61 0 115 -16.5t93 -48.5 q41 -33 63 -81t22 -110q0 -45 -12 -84t-33 -68t-49 -45t-58 -16q-56 0 -96 55q17 6 34 24.5t30 44.5q12 25 19 54t7 56q0 58 -35 89q-29 25 -78 25q-44 0 -83 -24t-67 -66q-28 -41 -43.5 -93t-15.5 -106q0 -97 48 -167q52 -78 159 -107q-104 -23 -192 -106 q-79 -76 -127 -183q-47 -107 -47 -200t45 -147q50 -60 149 -60q49 0 103.5 13.5t104.5 39.5q116 59 171 156l47 -21q-81 -177 -247 -282q-80 -50 -170 -76.5t-183 -26.5q-96 0 -168 28.5z" />
<glyph unicode="&#x402;" horiz-adv-x="1485" d="M635 -403q-43 21 -65 57t-22 79t21 85q23 -25 49 -35t58 -10q54 0 99.5 30.5t84.5 94.5q73 119 141 395q19 63 35 163q17 105 17 171q0 78 -33 114q-28 29 -78 29q-87 0 -160 -55l-153 -715h-295l291 1356h-25q-182 0 -274 -83q-111 -100 -111 -331q0 -66 15 -102 q4 -13 10 -23q4 -7 4 -14q-110 0 -163 44q-56 47 -56 154q0 106 39.5 201.5t120.5 167.5q87 78 221 121t317 43q82 0 142.5 -6t137.5 -17q79 -13 128.5 -18.5t115.5 -5.5q68 0 130 12t108 31q-5 -135 -68 -197.5t-188 -62.5q-67 0 -135 11t-183 34l-100 -463q67 42 153 64 q61 14 123 14q53 0 99 -17.5t80 -51.5q75 -78 75 -224q0 -74 -14 -158t-39 -190q-34 -145 -85.5 -272.5t-117.5 -223.5q-72 -103 -158.5 -160t-185.5 -57q-63 0 -106 21z" />
<glyph unicode="&#x403;" horiz-adv-x="877" d="M940 2048h215l-248 -387h-153zM481 1368q-65 -2 -113 -23.5t-81 -67.5q-72 -100 -72 -333q0 -66 15 -102q4 -13 10 -23q4 -7 4 -14q-110 0 -163 44q-56 47 -56 155q0 146 66 259q73 126 224 196q167 77 420 77q39 0 94.5 -5.5t65.5 -6.5q130 -13 197 -13q115 0 194 25 q-9 -28 -14 -48q-14 -58 -37 -107q-27 -55 -82 -78q-29 -13 -72 -13q-128 0 -313 41l-287 -1331h-295z" />
<glyph unicode="&#x404;" horiz-adv-x="1018" d="M288 -5.5q-83 27.5 -138 86.5q-56 60 -83.5 156.5t-27.5 233.5q0 155 36 323q42 195 120 349q91 179 221 279q148 114 338 114q153 0 243 -64q99 -70 99 -210q0 -88 -32 -135q-38 -54 -112 -54q-31 0 -60.5 11t-55.5 42q18 9 35 28.5t30 45.5q29 58 29 115q0 55 -28 87 q-33 38 -97 38q-55 0 -108 -40.5t-102 -114.5q-47 -70 -87 -163.5t-68 -199.5h391l-32 -152h-393q-27 -152 -27 -287q0 -76 11.5 -133t37.5 -97q57 -89 197 -89q120 0 223 53.5t176 151.5l47 -21q-39 -98 -107.5 -171.5t-154.5 -121.5q-79 -44 -163 -66t-159 -22 q-116 0 -199 27.5z" />
<glyph unicode="&#x405;" horiz-adv-x="1112" d="M265 -23q-78 20 -136 62q-129 91 -129 270q0 80 26 143.5t71 107.5q42 41 95.5 63t108.5 22q66 0 115 -27q61 -37 65 -108q-96 0 -160 -43q-79 -53 -79 -150q0 -39 12.5 -74.5t36.5 -61.5q25 -28 62.5 -44t84.5 -16q52 0 96 18.5t76 53.5q66 72 66 200q0 82 -28.5 153 t-80.5 137q-45 59 -101 117q-64 65 -107.5 119.5t-71.5 112.5q-31 61 -31 137q0 79 36.5 146.5t101.5 117.5q64 49 150.5 76t184.5 27q72 0 129 -14q87 -22 137 -69q64 -61 64 -163q0 -45 -11.5 -83t-33.5 -65q-46 -59 -123 -59q-57 0 -94 43q41 23 67 76q25 48 25 101 q0 61 -33 95q-40 42 -119 42q-88 0 -138 -48t-50 -139q0 -70 31 -126.5t89 -112.5t111 -100q65 -55 114.5 -117t81.5 -137q34 -80 34 -191q0 -125 -46.5 -222t-129.5 -163q-80 -63 -183.5 -95t-216.5 -32q-91 0 -169 20z" />
<glyph unicode="&#x406;" horiz-adv-x="766" d="M502 1391q-138 -57 -212.5 -170.5t-74.5 -276.5q0 -66 15 -102q4 -13 10 -23q4 -7 4 -14q-110 0 -163 44q-56 47 -56 155q0 66 28.5 132t81.5 127q51 59 120 109t150 87q172 77 338 77q46 0 82 -4l-325 -1532h-295z" />
<glyph unicode="&#x407;" horiz-adv-x="766" d="M433 1722q-36 34 -36 88q0 25 9.5 48t26.5 40q37 37 89 37q25 0 48 -10t40 -27t27 -40t10 -48q0 -53 -37 -88q-18 -17 -41 -26.5t-47 -9.5q-51 0 -89 36zM802 1722q-36 36 -36 88q0 24 9.5 47t26.5 41q35 37 89 37q49 0 88 -37q17 -17 27 -40t10 -48q0 -53 -37 -88 q-39 -36 -88 -36q-53 0 -89 36zM502 1391q-138 -57 -212.5 -170.5t-74.5 -276.5q0 -66 15 -102q4 -13 10 -23q4 -7 4 -14q-110 0 -163 44q-56 47 -56 155q0 66 28.5 132t81.5 127q51 59 120 109t150 87q172 77 338 77q46 0 82 -4l-325 -1532h-295z" />
<glyph unicode="&#x408;" horiz-adv-x="926" d="M-86 -344q-78 78 -78 209q0 52 17 101.5t48 87.5q33 40 79.5 62.5t105.5 22.5q41 0 72.5 -3.5t58.5 -15.5q70 -31 70 -118q0 -39 -13 -82q-37 31 -65 43q-24 10 -57 10q-68 0 -108 -47q-18 -20 -27 -47.5t-9 -56.5q0 -73 48 -112q19 -16 43 -24t48 -8q38 0 65 10t49 36 q47 55 81 206l322 1463q-138 -57 -213.5 -171.5t-75.5 -277.5q0 -64 14 -102q4 -13 10 -23q4 -7 4 -14q-111 0 -162 44q-57 48 -57 155q0 67 29 132.5t82 126.5q50 58 119.5 108.5t150.5 87.5q170 77 338 77h82l-307 -1454q-26 -122 -66.5 -214.5t-101.5 -155.5 q-65 -67 -156 -101.5t-215 -34.5q-145 0 -225 80z" />
<glyph unicode="&#x409;" horiz-adv-x="1673" d="M114.5 -228q-42.5 5 -79.5 24q-96 47 -96 188q0 75 26.5 182.5t74.5 232.5t114 257t143 257q80 130 169 242.5t180 195.5q201 185 376 185q38 0 81 -6q49 -7 81 -23l-140 -651q59 20 109 28.5t102 8.5q172 0 263 -107q42 -51 63 -120t21 -152q0 -53 -11 -113.5 t-33 -119.5q-23 -63 -59 -119.5t-83 -99.5q-107 -97 -253 -97q-68 0 -114.5 22t-70.5 61q-23 38 -23 86q0 51 22 102q31 -40 64.5 -57t72.5 -17q54 0 93 32.5t65 88.5q23 50 34 112.5t11 124.5q0 118 -41 179q-49 73 -154 73q-55 0 -100 -22l-160 -750h-295l295 1391 q-111 -59 -237 -251q-118 -182 -219 -422q-98 -235 -159 -463q-63 -232 -63 -374q0 -77 29 -114q-56 0 -98.5 5z" />
<glyph unicode="&#x40a;" horiz-adv-x="1907" d="M1282 -13q-47 22 -71 61q-23 38 -23 86q0 51 22 102q31 -40 64.5 -57t73.5 -17q102 0 157 121q23 50 34 112.5t11 124.5q0 118 -41 179q-49 73 -153 73q-56 0 -101 -22l-159 -750h-295l164 770h-301l-164 -770h-295l297 1393q-138 -58 -212.5 -172t-74.5 -277 q0 -66 15 -102q4 -13 10 -23q4 -7 4 -14q-110 0 -163 44q-56 47 -56 155q0 66 28.5 132t81.5 127q51 59 120 109t150 87q172 77 338 77q46 0 82 -4l-131 -610h301l131 610h295l-143 -676q61 19 111 28t100 9q171 0 262 -107q42 -50 63 -119.5t21 -152.5q0 -53 -11 -113.5 t-33 -119.5q-23 -63 -59 -119.5t-83 -99.5q-107 -97 -252 -97q-68 0 -115 22z" />
<glyph unicode="&#x40b;" horiz-adv-x="1526" d="M995 10q-30 33 -30 92q0 49 13 116t46 206q14 63 20 109q9 67 9 94q0 78 -33 114q-28 29 -78 29q-87 0 -160 -55l-153 -715h-295l291 1356h-25q-182 0 -274 -83q-111 -100 -111 -331q0 -66 15 -102q4 -13 10 -23q4 -7 4 -14q-110 0 -163 44q-56 47 -56 154 q0 106 39.5 201.5t120.5 167.5q87 78 221 121t317 43q82 0 142.5 -6t137.5 -17q79 -13 128.5 -18.5t115.5 -5.5q68 0 130 12t108 31q-5 -135 -68 -197.5t-188 -62.5q-67 0 -135 11t-183 34l-100 -463q67 42 155 64q61 14 126 14q52 0 97 -17t78 -52q74 -79 74 -224 q0 -118 -26 -213l-8 -33q-27 -114 -37 -164t-10 -92q0 -48 21 -84.5t58 -50.5q-123 -35 -215 -35q-89 0 -129 45z" />
<glyph unicode="&#x40c;" horiz-adv-x="1300" d="M1051 2048h215l-248 -387h-154zM776 10q-31 34 -31 92q0 46 14 106.5t41 156.5q27 97 40.5 160t13.5 116q0 65 -27 101q-30 38 -96 38q-36 0 -67 -8l-164 -772h-295l297 1393q-138 -58 -212.5 -172t-74.5 -277q0 -66 15 -102q4 -13 10 -23q4 -7 4 -14q-110 0 -163 44 q-56 47 -56 155q0 66 28.5 132t81.5 127q51 59 120 109t150 87q172 77 338 77q46 0 82 -4l-131 -612q38 118 121 258q63 107 125 180q73 90 149.5 134t151.5 44q31 0 59 -9t49 -26q46 -38 46 -102q0 -72 -43 -112q-35 -32 -90 -32q-88 0 -121 82q-105 -63 -190 -179 t-163 -288q34 2 47 2h39q140 0 202 -62q52 -53 52 -157q0 -57 -13 -121.5t-37 -152.5q-27 -98 -38.5 -149.5t-11.5 -94.5q0 -48 21.5 -84.5t58.5 -50.5q-123 -35 -203 -35q-89 0 -129 45z" />
<glyph unicode="&#x40e;" horiz-adv-x="1319" d="M829.5 1685q-69.5 47 -69.5 130q0 67 37.5 108t99.5 41q60 0 93.5 -28.5t33.5 -82.5q0 -24 -7 -43q-13 -36 -42 -55q23 -8 82 -8q93 0 170 50q95 61 145 190h86q-67 -194 -182 -276q-102 -73 -250 -73q-127 0 -196.5 47zM467 33q-45 41 -45 106q0 69 36.5 107.5 t104.5 38.5q53 0 86 -31.5t41 -89.5q34 13 65.5 54t57.5 97l-293 1084q-146 -55 -225.5 -171t-79.5 -284q0 -66 15 -102q4 -13 10 -23q4 -7 4 -14q-110 0 -163 44q-56 47 -56 155q0 66 28.5 132t81.5 127q51 59 120 109t150 87q172 77 338 77q46 0 82 -4l179 -768l323 762 h135l-512 -1211q-28 -63 -55.5 -113.5t-63.5 -94.5q-99 -117 -229 -117q-87 0 -135 43z" />
<glyph unicode="&#x40f;" horiz-adv-x="1362" d="M502 0h-297l297 1393q-138 -58 -212.5 -172t-74.5 -277q0 -66 15 -102q4 -13 10 -23q4 -7 4 -14q-110 0 -163 44q-56 47 -56 155q0 66 28.5 132t81.5 127q51 59 120 109t150 87q172 77 338 77q46 0 82 -4l-295 -1380h301l295 1380h295l-325 -1532h-299l-90 -424h-297z " />
<glyph unicode="&#x410;" horiz-adv-x="1319" d="M309.5 -228q-42.5 5 -79.5 24q-97 47 -97 188q0 68 21.5 163t61.5 205q88 242 218 465q-103 -6 -161.5 -30t-77.5 -76q4 0 8.5 -5.5t8.5 -14.5q9 -22 9 -44q0 -36 -33 -58t-82 -22q-56 0 -91 30.5t-35 88.5q0 51 31 97.5t88 80.5q58 35 134 54.5t164 19.5q43 0 107 -6 q172 271 344 425q200 179 369 179q99 0 161 -29l-321 -1507h-295l158 743q-69 32 -143 52q-56 15 -132 22q-118 -260 -190 -513q-76 -263 -76 -423q0 -77 29 -114q-56 0 -98.5 5zM1057 1391q-89 -48 -187 -181q-96 -132 -182 -305q140 -27 250 -71z" />
<glyph unicode="&#x411;" horiz-adv-x="1319" d="M667.5 -13q-46.5 22 -70.5 61q-23 38 -23 86q0 51 22 102q31 -40 64.5 -57t72.5 -17q54 0 93 32.5t65 88.5q23 50 34 112.5t11 124.5q0 118 -41 179q-49 73 -154 73q-57 0 -98 -20l-162 -752h-295l295 1368q-63 -2 -110.5 -23.5t-81.5 -67.5q-74 -101 -74 -333 q0 -66 15 -102q4 -13 10 -23q4 -7 4 -14q-110 0 -163 44q-56 47 -56 155q0 106 39.5 201t120.5 167q87 78 221 121t317 43q36 0 77 -4l49 -4q142 -12 162 -13q52 -4 113 -4q107 0 185 25q-2 -9 -7.5 -41t-14 -61.5t-20.5 -52.5q-46 -91 -153 -91q-152 0 -346 41l-102 -475 q62 19 110 28t98 9q172 0 263 -107q42 -51 63 -120t21 -152q0 -53 -11 -113.5t-33 -119.5q-23 -63 -59 -119.5t-83 -99.5q-107 -97 -253 -97q-68 0 -114.5 22z" />
<glyph unicode="&#x412;" horiz-adv-x="1313" d="M659 -6q-69 40 -69 123q0 55 26 119q38 -41 70 -57.5t68 -16.5q102 0 157 126q23 51 34 115.5t11 126.5q0 118 -41 184q-49 77 -153 77q-55 0 -94 -7l-168 -784h-295l278 1303l303 40l-96 -454h12q59 0 113 29t95 79q40 49 63.5 108t23.5 116q0 44 -15.5 83.5t-46.5 69.5 q-71 68 -208 68q-126 0 -239 -54q-126 -61 -193 -165q-80 -121 -80 -279q0 -66 15 -102q4 -13 10 -23q4 -7 4 -14q-109 0 -164 43.5t-55 144.5q0 140 107 267q50 60 119.5 110.5t152.5 87.5q175 78 364 78q211 0 331 -100q52 -44 78.5 -102.5t26.5 -123.5q0 -97 -52 -180 q-58 -92 -153 -145q123 -22 187 -119q55 -85 55 -211q0 -52 -10 -115t-30 -125q-49 -154 -139 -241q-112 -109 -269 -109q-85 0 -134 29z" />
<glyph unicode="&#x413;" horiz-adv-x="877" d="M481 1368q-65 -2 -113 -23.5t-81 -67.5q-72 -100 -72 -333q0 -66 15 -102q4 -13 10 -23q4 -7 4 -14q-110 0 -163 44q-56 47 -56 155q0 146 66 259q73 126 224 196q167 77 420 77q39 0 94.5 -5.5t65.5 -6.5q130 -13 197 -13q115 0 194 25q-9 -28 -14 -48q-14 -58 -37 -107 q-27 -55 -82 -78q-29 -13 -72 -13q-128 0 -313 41l-287 -1331h-295z" />
<glyph unicode="&#x414;" horiz-adv-x="1370" d="M100.5 -39q-43.5 16 -76.5 45q-35 31 -55 71.5t-20 88.5q0 59 21 109.5t59 85.5q37 34 85 52.5t101 18.5q43 0 76 -16l8 41l184 846l303 40l-223 -1050q-15 -64 -26 -96q51 -43 120 -43q59 0 112.5 37t98.5 105q85 127 136 342q47 203 47 417q0 200 -82 298 q-76 89 -217 89q-115 0 -213 -34t-170 -98q-74 -66 -114 -159t-40 -207q0 -66 15 -102q4 -13 10 -23q4 -7 4 -14q-108 0 -163.5 44.5t-55.5 145.5q0 69 27 136.5t78 128.5q50 60 120.5 110.5t154.5 87.5q178 78 381 78q279 0 423 -177q63 -78 93.5 -184t30.5 -229 q0 -115 -20.5 -233t-58.5 -228q-38 -108 -90.5 -201.5t-115.5 -162.5q-65 -71 -136.5 -109.5t-145.5 -38.5q-71 0 -137 28q-77 32 -140 101q-55 -86 -143 -125q-69 -32 -156 -32q-46 0 -89.5 16zM210 161q37 41 54 126l10 51q-31 20 -61 20q-27 0 -54.5 -12.5t-48.5 -34.5 q-22 -22 -35.5 -52.5t-13.5 -63.5q0 -30 23 -49t59 -19q37 0 67 34z" />
<glyph unicode="&#x415;" horiz-adv-x="940" d="M223 -8.5q-72 28.5 -119 80.5q-45 49 -67.5 114t-22.5 138q0 81 26 165.5t75 157.5q50 76 120.5 130t157.5 77q-64 46 -94.5 110t-30.5 136q0 79 33.5 157.5t93.5 141.5q62 66 144.5 103.5t177.5 37.5q61 0 115 -16.5t93 -48.5q41 -33 63 -81t22 -110q0 -45 -12 -84 t-33 -68t-49 -45t-58 -16q-56 0 -96 55q17 6 34 24.5t30 44.5q12 25 19 54t7 56q0 58 -35 89q-29 25 -78 25q-44 0 -83 -24t-67 -66q-28 -41 -43.5 -93t-15.5 -106q0 -97 48 -167q52 -78 159 -107q-104 -23 -192 -106q-79 -76 -127 -183q-47 -107 -47 -200t45 -147 q50 -60 149 -60q49 0 103.5 13.5t104.5 39.5q116 59 171 156l47 -21q-81 -177 -247 -282q-80 -50 -170 -76.5t-183 -26.5q-96 0 -168 28.5z" />
<glyph unicode="&#x416;" horiz-adv-x="1591" d="M20.5 -28q-53.5 7 -114.5 28q84 44 127 147q18 42 29 89.5t23 118.5q12 76 22 125.5t26 96.5q38 118 115 187q88 88 276 88h6q4 73 4 157q0 150 -41 245q-20 47 -59 83q-42 -82 -137 -82q-50 0 -79.5 35t-29.5 90q0 78 61 119q55 37 136 37q134 0 204 -132 q57 -106 67 -285q2 -48 2 -72q0 -100 -15 -203q21 0 41 -4l135 628l307 64l-147 -692q21 4 47 4q30 143 97 298q62 147 116 216q66 89 145.5 133.5t155.5 44.5q31 0 59 -9t49 -26q46 -38 46 -102q0 -72 -43 -112q-35 -32 -90 -32q-88 0 -121 82q-54 -34 -95 -82t-76 -112 q-30 -55 -57.5 -122t-64.5 -169h29q139 0 201 -62q53 -54 53 -157q0 -56 -12.5 -114.5t-37.5 -149.5l-9 -30q-21 -75 -31.5 -120.5t-10.5 -83.5q0 -48 21.5 -84.5t58.5 -50.5q-123 -35 -203 -35q-89 0 -129 45q-30 33 -30 92q0 46 13.5 102.5t40.5 149.5t40.5 150t13.5 104 q0 65 -27 101q-31 39 -96 39q-30 0 -74 -7l-157 -741h-295l158 745q-17 3 -48 3q-83 4 -140 -49q-51 -48 -77 -140q-13 -43 -22.5 -92.5t-20.5 -118.5l-15 -102q-14 -98 -37 -159q-28 -73 -93 -105q-36 -17 -84 -17q-53 0 -106.5 7z" />
<glyph unicode="&#x417;" horiz-adv-x="1075" d="M85 33q-105 74 -105 211q0 83 48 134q47 50 119 50q43 0 68.5 -13t44.5 -40q-76 -45 -76 -148q0 -29 10.5 -54.5t30.5 -43.5q44 -41 121 -41q69 0 124 35.5t93 99.5q36 59 55 135t19 156q0 134 -62 198q-58 58 -174 58h-86l33 152h74q66 0 120.5 30.5t92.5 81.5 q35 46 53.5 101.5t18.5 103.5q0 75 -41.5 117.5t-118.5 42.5q-193 0 -314 -236l-47 21q21 85 66 152t108 112q59 43 131.5 64.5t151.5 21.5q185 0 281 -88q90 -84 90 -236q0 -121 -82 -216q-81 -91 -225 -140q128 -38 193 -117q71 -87 71 -211q0 -114 -42 -216.5 t-121 -179.5q-81 -79 -194.5 -123t-251.5 -44q-177 0 -277 70z" />
<glyph unicode="&#x418;" horiz-adv-x="1444" d="M502 1393q-138 -58 -212.5 -172t-74.5 -277q0 -66 15 -102q4 -13 10 -23q4 -7 4 -14q-110 0 -163 44q-56 47 -56 155q0 66 28.5 132t81.5 127q51 59 120 109t150 87q172 77 338 77q46 0 82 -4l-231 -1090l614 1090h295l-325 -1532h-295l223 1053l-606 -1053h-295z" />
<glyph unicode="&#x419;" horiz-adv-x="1444" d="M817.5 1685q-69.5 47 -69.5 130q0 67 37.5 108t99.5 41q60 0 93.5 -28.5t33.5 -82.5q0 -24 -7 -43q-13 -36 -42 -55q23 -8 81 -8q94 0 171 50q95 61 145 190h86q-67 -194 -182 -276q-102 -73 -250 -73q-127 0 -196.5 47zM502 1393q-138 -58 -212.5 -172t-74.5 -277 q0 -66 15 -102q4 -13 10 -23q4 -7 4 -14q-110 0 -163 44q-56 47 -56 155q0 66 28.5 132t81.5 127q51 59 120 109t150 87q172 77 338 77q46 0 82 -4l-231 -1090l614 1090h295l-325 -1532h-295l223 1053l-606 -1053h-295z" />
<glyph unicode="&#x41a;" horiz-adv-x="1300" d="M776 10q-31 34 -31 92q0 46 14 106.5t41 156.5q27 97 40.5 160t13.5 116q0 65 -27 101q-30 38 -96 38q-36 0 -67 -8l-164 -772h-295l297 1393q-138 -58 -212.5 -172t-74.5 -277q0 -66 15 -102q4 -13 10 -23q4 -7 4 -14q-110 0 -163 44q-56 47 -56 155q0 66 28.5 132 t81.5 127q51 59 120 109t150 87q172 77 338 77q46 0 82 -4l-131 -612q38 118 121 258q63 107 125 180q73 90 149.5 134t151.5 44q31 0 59 -9t49 -26q46 -38 46 -102q0 -72 -43 -112q-35 -32 -90 -32q-88 0 -121 82q-105 -63 -190 -179t-163 -288q34 2 47 2h39q140 0 202 -62 q52 -53 52 -157q0 -57 -13 -121.5t-37 -152.5q-27 -98 -38.5 -149.5t-11.5 -94.5q0 -48 21.5 -84.5t58.5 -50.5q-123 -35 -203 -35q-89 0 -129 45z" />
<glyph unicode="&#x41b;" horiz-adv-x="1124" d="M114.5 -228q-42.5 5 -79.5 24q-96 47 -96 188q0 75 26.5 182.5t74.5 232.5t114 257t143 257q80 130 169 242.5t180 195.5q201 185 376 185q38 0 81 -6q49 -7 81 -23l-322 -1507h-295l295 1391q-111 -59 -237 -251q-118 -182 -219 -422q-98 -235 -159 -463 q-63 -232 -63 -374q0 -77 29 -114q-56 0 -98.5 5z" />
<glyph unicode="&#x41c;" horiz-adv-x="1667" d="M657 1407q-156 -52 -240.5 -169.5t-84.5 -291.5q0 -66 14 -104q3 -11 10 -22q4 -7 4 -15q-104 0 -159 42q-60 46 -60 144q0 64 26 130t74 128q47 60 109.5 112.5t135.5 91.5q73 40 151.5 61.5t155.5 21.5q76 0 155 -29l-47 -1079l451 1079h295l-215 -1507h-295l131 920 l-385 -920h-281l41 924l-342 -924h-164z" />
<glyph unicode="&#x41d;" horiz-adv-x="1362" d="M502 1393q-138 -58 -212.5 -172t-74.5 -277q0 -66 15 -102q4 -13 10 -23q4 -7 4 -14q-110 0 -163 44q-56 47 -56 155q0 66 28.5 132t81.5 127q51 59 120 109t150 87q172 77 338 77q46 0 82 -4l-131 -610h301l131 610h295l-325 -1532h-295l164 770h-301l-164 -770h-295z " />
<glyph unicode="&#x41e;" horiz-adv-x="1362" d="M324 81q-103 103 -103 318q0 85 16 189t46 208q32 111 79.5 212t106.5 177q137 175 307 175q31 0 55.5 -3.5t51.5 -13.5q-89 -52 -176 -226q-80 -161 -131 -363q-52 -203 -52 -363q0 -108 28 -170q30 -67 91 -67q50 0 101.5 39t101.5 110q48 69 89 160.5t71 195.5 q65 224 65 424q0 96 -11 161t-39 108q-30 46 -81 68t-131 22q-117 0 -224 -36.5t-188 -104.5q-84 -71 -131 -169t-47 -217q0 -45 11 -78q3 -13 7 -19q3 -7 3 -13q-102 0 -154.5 40.5t-52.5 131.5q0 141 118 273q116 128 301 205q195 81 406 81q256 0 377 -147 q108 -132 108 -377q0 -103 -19 -217t-57 -224q-42 -120 -103.5 -224t-141.5 -181q-185 -178 -434 -178q-171 0 -264 93z" />
<glyph unicode="&#x41f;" horiz-adv-x="1409" d="M494 1348q-131 -21 -201 -112q-78 -102 -78 -294q0 -66 15 -102q4 -13 10 -23q4 -7 4 -14q-110 0 -163 44q-56 47 -56 154q0 106 39.5 201.5t120.5 167.5q87 78 221 121t317 43q77 0 143 -6t169 -18q92 -12 170.5 -18.5t170.5 -6.5q68 0 130 12t108 31q-6 -257 -246 -260 l-272 -1268h-295l278 1292q-75 11 -147 24q-105 17 -146 23l-286 -1339h-295z" />
<glyph unicode="&#x420;" horiz-adv-x="1174" d="M471 1303l303 40l-145 -684q97 7 185 90q80 75 127 190q46 110 46 224q0 120 -59 197q-32 39 -81 60.5t-114 21.5q-124 0 -222.5 -34t-167.5 -98t-104.5 -157t-35.5 -209q0 -64 14 -102q4 -13 10 -23q4 -7 4 -14q-111 0 -162 44q-57 48 -57 155q0 67 29 132.5t82 126.5 q50 58 119.5 108.5t150.5 87.5q170 77 338 77q237 0 368 -123q58 -55 86.5 -127t28.5 -153q0 -99 -40.5 -197t-116.5 -175q-80 -82 -190.5 -129.5t-243.5 -47.5h-11l-125 -584h-294z" />
<glyph unicode="&#x421;" horiz-adv-x="1018" d="M288 -5.5q-83 27.5 -138 86.5q-56 60 -83.5 156.5t-27.5 233.5q0 155 36 323q42 195 120 349q91 179 221 279q148 114 338 114q153 0 243 -64q99 -70 99 -210q0 -88 -32 -135q-38 -54 -112 -54q-31 0 -60.5 11t-55.5 42q18 9 35 28.5t30 45.5q29 58 29 115q0 55 -28 87 q-33 38 -97 38q-55 0 -108.5 -40.5t-102.5 -114.5q-47 -71 -87 -166t-68 -202q-28 -108 -44 -220t-16 -214q0 -76 11.5 -133t37.5 -97q57 -89 197 -89q120 0 223 53.5t176 151.5l47 -21q-39 -98 -107.5 -171.5t-154.5 -121.5q-79 -44 -163 -66t-159 -22q-116 0 -199 27.5z " />
<glyph unicode="&#x422;" horiz-adv-x="985" d="M612 1356h-24q-182 0 -274 -83q-111 -100 -111 -331q0 -64 14 -102q4 -13 10 -23q4 -7 4 -14q-111 0 -162 44q-57 48 -57 154t39.5 201.5t120.5 167.5q87 78 221.5 121t317.5 43q105 0 201 -12q30 -3 78 -11q80 -15 154 -20q36 -4 91 -4q68 0 130 12t108 31 q-5 -134 -68.5 -197t-187.5 -63q-67 0 -135 11t-183 34l-283 -1315h-294z" />
<glyph unicode="&#x423;" horiz-adv-x="1319" d="M467 33q-45 41 -45 106q0 69 36.5 107.5t104.5 38.5q53 0 86 -31.5t41 -89.5q34 13 65.5 54t57.5 97l-293 1084q-146 -55 -225.5 -171t-79.5 -284q0 -66 15 -102q4 -13 10 -23q4 -7 4 -14q-110 0 -163 44q-56 47 -56 155q0 66 28.5 132t81.5 127q51 59 120 109t150 87 q172 77 338 77q46 0 82 -4l179 -768l323 762h135l-512 -1211q-28 -63 -55.5 -113.5t-63.5 -94.5q-99 -117 -229 -117q-87 0 -135 43z" />
<glyph unicode="&#x424;" horiz-adv-x="1610" d="M530 211q-247 4 -378 140q-57 60 -85 138t-28 166q0 194 100 328q92 125 259 197q152 65 358 86l65 307q-202 -14 -291 -59q-48 -24 -71 -59t-23 -83q0 -40 17 -88q-22 -2 -34 -2q-67 0 -111 25q-62 34 -62 112q2 59 48 104t127 76q76 29 174.5 43.5t205.5 14.5 q185 0 325 -31l-77 -358q242 -23 375 -148q62 -58 93 -132.5t31 -160.5q0 -125 -48 -237t-136 -196q-90 -86 -215.5 -134.5t-274.5 -48.5h-49l-45 -211h-295zM733 1165q-207 -36 -309 -166t-102 -372q0 -61 15.5 -117t45.5 -100q30 -46 72.5 -72.5t95.5 -30.5zM858 307 q93 0 171 46t135 127q55 77 84.5 171.5t29.5 190.5q0 140 -62.5 219.5t-187.5 103.5l-182 -858h12z" />
<glyph unicode="&#x425;" horiz-adv-x="1270" d="M659 680l-151 719q-146 -55 -225.5 -170.5t-79.5 -284.5q0 -64 14 -102q4 -13 10 -23q4 -7 4 -14q-111 0 -162 44q-57 48 -57 155q0 67 29 132.5t82 126.5q50 58 119.5 108.5t150.5 87.5q170 77 338 77q46 0 82 -4l88 -426l238 420h143l-344 -596l192 -930h-325l-109 512 l-297 -512h-125z" />
<glyph unicode="&#x426;" horiz-adv-x="1417" d="M1074 -321q-57 23 -117 66q-50 35 -108 83q-123 102 -267 147q-81 25 -193 25q-61 0 -117 -2q-40 -3 -59 -8l-10 -2v2l2 4l297 1397q-138 -57 -212.5 -170.5t-74.5 -276.5q0 -66 15 -102q4 -13 10 -23q4 -7 4 -14q-110 0 -163 44q-56 47 -56 155q0 66 28.5 132t81.5 127 q51 59 120 109t150 87q172 77 338 77q46 0 82 -4l-293 -1382h19q61 0 125.5 -17t140.5 -47l309 1446h295l-336 -1567q57 -25 104 -37t93 -12t84 6q57 9 92 29q-14 -152 -71 -221q-62 -74 -187 -74q-69 0 -126 23z" />
<glyph unicode="&#x427;" horiz-adv-x="1423" d="M1008 682q-79 -47 -152 -63.5t-151 -16.5q-129 0 -205 70q-84 76 -84 223q0 116 22 213l64 285q-138 -58 -212.5 -172t-74.5 -277q0 -66 15 -102q4 -13 10 -23q4 -7 4 -14q-110 0 -163 44q-56 47 -56 155q0 66 28.5 132t81.5 127q51 59 120 109t150 87q172 77 338 77 q46 0 82 -4l-92 -424q-28 -140 -28 -197q0 -79 48 -117q39 -32 105 -32q102 0 180 65l150 705h295l-326 -1532h-295z" />
<glyph unicode="&#x428;" horiz-adv-x="1855" d="M502 1393q-138 -58 -212.5 -172t-74.5 -277q0 -66 15 -102q4 -13 10 -23q4 -7 4 -14q-110 0 -163 44q-56 47 -56 155q0 66 28.5 132t81.5 127q51 59 120 109t150 87q172 77 338 77q46 0 82 -4l-295 -1380h240l295 1380h295l-295 -1380h260l295 1380h295l-326 -1532h-1384 z" />
<glyph unicode="&#x429;" horiz-adv-x="1913" d="M1540 -321q-91 23 -213 66q-96 33 -228 83q-271 102 -480 147q-118 25 -230 25q-65 0 -119 -2q-40 -3 -59 -8l-8 -2v4q0 6 2 8l297 1393q-138 -57 -212.5 -170.5t-74.5 -276.5q0 -68 15 -104q3 -11 10 -22q4 -7 4 -15q-109 0 -164 43.5t-55 144.5q0 70 29 139t82 131 q50 59 119.5 109.5t150.5 87.5q168 76 335 76q48 0 84 -4l-295 -1382q23 0 34 1t36 1q64 0 166 -21l299 1401h295l-311 -1462q152 -36 247 -62l324 1524h295l-338 -1587q143 -29 199 -29q58 0 101 8t77 27q-14 -151 -72 -221q-60 -74 -182 -74q-69 0 -160 23z" />
<glyph unicode="&#x42a;" horiz-adv-x="1462" d="M837.5 -13q-46.5 22 -70.5 61q-23 38 -23 86q0 51 22 102q31 -40 64.5 -57t72.5 -17q54 0 93 32.5t65 88.5q23 50 34 112.5t11 124.5q0 118 -41 179q-49 73 -154 73q-55 0 -100 -22l-162 -750h-295l291 1354q-18 0 -26 1q-9 1 -27 1q-107 0 -168 -14q-86 -20 -135 -74 q-33 -38 -52 -94t-19 -120q0 -66 18.5 -131.5t58.5 -123.5q-32 -6 -62 -6q-73 0 -125 34q-39 26 -61 69.5t-22 104.5q0 64 20 128t59 122q40 61 100 112.5t138 88.5q170 82 401 82q141 0 234 -16l-143 -662q59 20 108.5 28.5t101.5 8.5q172 0 263 -107q42 -51 63 -120 t21 -152q0 -53 -11 -113.5t-33 -119.5q-23 -63 -59 -119.5t-83 -99.5q-107 -97 -253 -97q-68 0 -114.5 22z" />
<glyph unicode="&#x42b;" horiz-adv-x="1862" d="M686 -13q-47 22 -71 61q-23 38 -23 86q0 51 22 102q31 -40 64.5 -57t73.5 -17q102 0 157 121q23 50 34 112.5t11 124.5q0 118 -41 179q-49 73 -153 73q-56 0 -101 -22l-159 -750h-295l297 1393q-138 -58 -212.5 -172t-74.5 -277q0 -66 15 -102q4 -13 10 -23q4 -7 4 -14 q-110 0 -163 44q-56 47 -56 155q0 66 28.5 132t81.5 127q51 59 120 109t150 87q172 77 338 77q46 0 82 -4l-143 -676q61 19 111 28t100 9q171 0 262 -107q42 -50 63 -119.5t21 -152.5q0 -53 -11 -113.5t-33 -119.5q-23 -63 -59 -119.5t-83 -99.5q-107 -97 -252 -97 q-68 0 -115 22zM1626 1532h295l-326 -1532h-295z" />
<glyph unicode="&#x42c;" horiz-adv-x="1311" d="M686 -13q-47 22 -71 61q-23 38 -23 86q0 51 22 102q31 -40 64.5 -57t73.5 -17q102 0 157 121q23 50 34 112.5t11 124.5q0 118 -41 179q-49 73 -153 73q-56 0 -101 -22l-159 -750h-295l297 1393q-138 -58 -212.5 -172t-74.5 -277q0 -66 15 -102q4 -13 10 -23q4 -7 4 -14 q-110 0 -163 44q-56 47 -56 155q0 66 28.5 132t81.5 127q51 59 120 109t150 87q172 77 338 77q46 0 82 -4l-143 -676q61 19 111 28t100 9q171 0 262 -107q42 -50 63 -119.5t21 -152.5q0 -53 -11 -113.5t-33 -119.5q-23 -63 -59 -119.5t-83 -99.5q-107 -97 -252 -97 q-68 0 -115 22z" />
<glyph unicode="&#x42d;" horiz-adv-x="1114" d="M79 31q-102 70 -102 211q0 88 33 135q36 53 111 53q32 0 61.5 -10.5t55.5 -42.5q-28 -17 -51 -73t-23 -116q0 -53 31 -87q35 -38 104 -38q47 0 94 27.5t91 77.5q86 98 153 262q65 158 96 340h-434l33 152h420q4 43 4 98q0 165 -50 246q-58 94 -196 94q-112 0 -193 -61 q-37 -27 -71.5 -67t-73.5 -97l-47 20q40 99 100 172.5t133 121.5q68 44 142.5 65.5t146.5 21.5q116 0 199.5 -27.5t138.5 -86.5q56 -60 83.5 -156t27.5 -234q0 -159 -38 -322q-48 -199 -128 -349q-98 -179 -237 -279q-158 -115 -363 -115q-159 0 -251 64z" />
<glyph unicode="&#x42e;" horiz-adv-x="1937" d="M900 81q-103 103 -103 318q0 80 13.5 176.5t39.5 194.5h-186l-164 -770h-295l297 1393q-138 -58 -212.5 -172t-74.5 -277q0 -66 15 -102q4 -13 10 -23q4 -7 4 -14q-110 0 -163 44q-56 47 -56 155q0 66 28.5 132t81.5 127q51 59 120 109t150 87q172 77 338 77q46 0 82 -4 l-131 -610h207q73 185 177 292q122 125 265 125q32 0 56.5 -3t50.5 -13q-45 -27 -89.5 -84.5t-83.5 -136.5q-78 -156 -127 -354q-24 -94 -37 -186.5t-13 -170.5q0 -108 28 -170q30 -67 91 -67q50 0 102 37.5t101 106.5q47 66 88 154.5t72 190.5q65 219 65 420q0 174 -62 261 q-69 97 -221 97q-101 0 -175 -35t-112 -96q-7 25 -7 41q0 36 20.5 70t58.5 60q49 35 117.5 55t146.5 20q260 0 383 -130t123 -394q0 -103 -19 -217t-57 -224q-42 -120 -103.5 -224t-141.5 -181q-185 -178 -435 -178q-171 0 -263 93z" />
<glyph unicode="&#x42f;" horiz-adv-x="1290" d="M-94 0q70 36 108 90q34 51 52 137l47 226q30 146 94 216q33 36 77 57.5t103 31.5q-84 46 -122 119t-38 174q0 97 44.5 185t129.5 154q90 69 218 107.5t288 38.5q107 0 200 -23.5t163 -66.5q70 -44 108.5 -104.5t38.5 -133.5q0 -106 -56 -154q-53 -44 -159 -44q1 3 7 18 q10 24 17 66q3 23 3 55q0 151 -82 220q-40 34 -100.5 49.5t-143.5 15.5q-110 0 -197 -30t-147 -84q-57 -51 -87 -120.5t-30 -146.5q0 -135 76 -214q32 -33 72 -50t80 -17h2l114 531l304 40l-287 -1343h-295l145 684q-75 -4 -121 -24q-35 -15 -77 -52q-29 -27 -49.5 -77.5 t-37.5 -121.5q-15 -65 -27 -129q-25 -137 -44 -193q-27 -74 -88 -105q-34 -17 -82 -17q-118 0 -221 35z" />
<glyph unicode="&#x430;" horiz-adv-x="1077" d="M57 61q-84 86 -84 256q0 72 14.5 152t42.5 158q64 176 175 284q128 123 295 123q83 0 124.5 -28.5t41.5 -75.5v-15l22 109h295l-147 -696q-9 -30 -9 -66q0 -88 84 -88q56 0 102 57q39 48 64 136h86q-55 -156 -133 -247q-66 -75 -149 -108q-61 -24 -129 -24 q-87 0 -138.5 47.5t-62.5 140.5q-58 -82 -122 -128q-82 -60 -183 -60q-117 0 -189 73zM427.5 198q25.5 12 49.5 34q54 52 72 135l98 462q0 10 -4.5 23.5t-12.5 25.5q-24 29 -67 29q-41 0 -79.5 -27t-72.5 -75q-60 -87 -99 -227q-18 -62 -27 -122.5t-9 -109.5q0 -102 38 -138 q13 -14 29 -18t36 -4q23 0 48.5 12z" />
<glyph unicode="&#x431;" horiz-adv-x="881" d="M60 75q-87 87 -87 263q0 118 37 230.5t108 201.5q75 93 179.5 146t234.5 53q14 0 19 -1t16 -1q-35 43 -85 91q-50 47 -84.5 86.5t-56.5 78.5q-24 42 -24 92q0 78 53 114.5t169 36.5h311h92q36 0 58.5 8.5t34.5 29.5q11 17 22 61h90q-25 -121 -52.5 -193t-65.5 -111 t-91 -54t-137 -15h-197q-13 0 -19.5 -4.5t-6.5 -20.5q0 -9 16 -28l14 -17q9 -12 33 -43.5t46 -63.5q63 -92 92 -211q16 -63 16 -138t-15 -154t-43 -154q-29 -76 -72 -142t-97 -116q-118 -108 -267 -108q-158 0 -241 83zM526 292q48 91 77 234q11 56 16.5 106t5.5 77 q0 77 -20 108q-18 27 -58 27q-46 0 -86 -29.5t-72 -80.5q-54 -86 -89 -225q-14 -53 -21 -102t-7 -79q0 -87 25 -121q12 -17 31.5 -24t50.5 -7q84 0 147 116z" />
<glyph unicode="&#x432;" horiz-adv-x="920" d="M53 96q-82 95 -82 264q0 55 12.5 135.5t35.5 173.5q50 200 133 391q92 210 202 336q124 142 252 142q107 0 164 -64q61 -70 61 -217q0 -116 -57 -263q-43 -111 -110 -228q43 -21 77 -61q89 0 202 42q101 36 173 87l19 -56q-57 -60 -147 -103.5t-200 -62.5q11 -38 11 -102 q0 -102 -33 -195t-96 -165q-65 -75 -156.5 -116.5t-202.5 -41.5q-168 0 -258 104zM489 201q40 25 68 69q27 41 41 91.5t14 101.5q0 76 -18 112q-20 -7 -33.5 -9.5t-40.5 -2.5q-49 0 -77.5 27t-28.5 74q0 61 41 92q33 25 102 30q55 99 99 233q44 137 44 247q0 62 -15.5 87 t-51.5 25q-32 0 -65 -34t-65 -95q-58 -113 -114 -301q-48 -159 -82 -342q-31 -164 -31 -252q0 -83 29 -128q31 -50 96 -50q48 0 88 25z" />
<glyph unicode="&#x433;" horiz-adv-x="768" d="M43 43q-86 57 -86 176q0 103 68 181q27 32 63.5 60t85.5 58q62 38 92.5 58.5t57.5 45.5q32 31 49.5 64t17.5 74q0 46 -23.5 71t-70.5 25q-67 0 -120.5 -51t-100.5 -162h-99q67 191 164 287q112 112 283 112q56 0 105.5 -13.5t87.5 -40.5q40 -29 61.5 -73.5t21.5 -103.5 q0 -79 -29.5 -138.5t-82.5 -108.5q-47 -43 -104 -78q-69 -42 -112 -71.5t-72 -62.5q-32 -37 -32 -84q0 -57 38 -82.5t108 -25.5q94 0 173 46q86 48 181 161h70q-110 -176 -233 -267q-149 -112 -331 -112q-149 0 -231 55z" />
<glyph unicode="&#x434;" horiz-adv-x="1038" d="M272.5 -499.5q-41.5 12.5 -71.5 37.5q-32 25 -50 62.5t-18 86.5q0 116 109 199q82 61 225 106l25 108q-105 -112 -246 -112q-117 0 -189 73q-84 86 -84 256q0 72 14.5 152t42.5 158q64 176 175 284q128 123 295 123q83 0 124.5 -28.5t41.5 -75.5v-12l22 106h295 l-203 -950q97 32 155 96q63 69 103 197h86q-55 -182 -164 -281q-80 -72 -198 -102l-31 -148q-39 -196 -156 -284q-85 -64 -213 -64q-48 0 -89.5 12.5zM472 227q53 46 71 119l104 485q0 10 -4.5 23t-12.5 24q-24 29 -67 29q-41 0 -79.5 -27t-72.5 -75q-60 -87 -99 -227 q-18 -62 -27 -122.5t-9 -109.5q0 -102 38 -138q13 -14 29 -18t36 -4q44 0 93 41zM381 -307q34 44 53 137l12 59q-93 -35 -139 -71q-61 -46 -61 -103q0 -27 17 -45q19 -22 52 -22q32 0 66 45z" />
<glyph unicode="&#x435;" horiz-adv-x="786" d="M60 64q-87 81 -87 249q0 63 12.5 140t37.5 154q28 86 71.5 163t101.5 136q134 136 330 136q125 0 182 -60q44 -47 44 -136q0 -87 -38 -163.5t-105 -135.5q-67 -58 -152 -92.5t-176 -40.5q-5 -52 -5 -82q0 -100 38 -138q33 -34 110 -34q111 0 203 60q39 25 75 59.5 t84 87.5h70q-97 -164 -223 -261q-155 -118 -340 -118q-151 0 -233 76zM408 545q54 29 96 76q42 48 66 107.5t24 121.5q0 41 -11.5 62.5t-39.5 21.5q-37 0 -74.5 -36t-72.5 -99q-32 -59 -58 -134t-41 -153q57 4 111 33z" />
<glyph unicode="&#x436;" horiz-adv-x="1806" d="M-23 56q-53 56 -53 149q0 80 37 129q16 21 38 32t46 11q45 0 74 -29q-27 -70 -27 -135q0 -59 25 -91q10 -13 23 -19.5t26 -6.5q56 0 109 97q50 90 82 226q32 138 32 257q0 111 -31 163t-94 52q-57 0 -91.5 -37t-66.5 -117h-106q45 151 119 223q85 82 221 82q69 0 125 -23 t95 -65q39 -43 59 -103t20 -134q0 -50 -6 -103h123l86 410h274l-86 -410h115q54 183 151 295q113 133 269 133q114 0 168 -59q43 -48 43 -129q0 -72 -29.5 -110.5t-75.5 -38.5q-37 0 -72 24q21 66 21 121q0 39 -12 61.5t-35 22.5q-26 0 -53 -25.5t-52 -70.5 q-51 -93 -82 -226q-34 -139 -34 -258q0 -108 40 -161.5t111 -53.5q37 0 78.5 14t83.5 42q93 63 158 172h69q-33 -72 -84 -139.5t-114 -120.5q-66 -56 -140.5 -87.5t-152.5 -31.5q-69 0 -124.5 23t-94.5 66q-39 42 -59.5 102t-20.5 134q0 53 3 94.5t13 84.5h-117l-102 -492 h-274l104 492h-115q-19 -95 -55.5 -184t-88.5 -158q-58 -76 -133.5 -119t-168.5 -43q-128 0 -191 68z" />
<glyph unicode="&#x437;" horiz-adv-x="1020" d="M183 -462q-32 25 -50 62.5t-18 86.5q0 112 103 195q79 62 218 106q-6 217 -147 217h-64l27 123h59q54 0 101 27t81 76q33 49 51.5 113t18.5 136q0 75 -23 118q-31 58 -102 58q-113 0 -196 -112q-91 -122 -156 -377h-86q29 113 52 191.5t51 146.5q65 162 162 244 q112 93 284 93q73 0 133 -21.5t102 -62.5q88 -88 88 -241q0 -121 -64 -233q-51 -90 -134 -155q-35 -27 -66.5 -44t-52.5 -21q50 -17 98 -70q52 -59 70 -135q57 16 100.5 39t78.5 57q36 35 64.5 86.5t53.5 125.5h86q-54 -185 -170 -287q-84 -73 -205 -103q-2 -115 -30.5 -206 t-79.5 -154t-121.5 -96t-155.5 -33q-97 0 -161 50zM340 -333q22 19 40 53q37 69 50 169q-95 -34 -141 -69q-62 -49 -62 -105q0 -30 18 -48.5t52 -18.5q21 0 43 19z" />
<glyph unicode="&#x438;" d="M48 46q-64 64 -64 187q0 58 16 134l139 657h295l-147 -696q-6 -31 -6 -58q0 -84 61 -84q56 0 101 51q36 43 63 130l139 657h295l-147 -696q-9 -30 -9 -66q0 -42 20 -59t64 -17q57 0 102 51q40 45 64 130h86q-55 -156 -133 -247q-66 -75 -149 -108q-61 -24 -129 -24 q-88 0 -140 49t-63 145q-70 -112 -158 -160q-63 -34 -145 -34q-98 0 -155 58z" />
<glyph unicode="&#x439;" d="M335.5 1171q-69.5 47 -69.5 129q0 67 37 108.5t100 41.5q60 0 93.5 -28.5t33.5 -82.5q0 -24 -7 -43q-13 -36 -42 -55q24 -8 82 -8q98 0 174 50q91 59 142 190h86q-67 -193 -179 -276q-99 -73 -254 -73q-127 0 -196.5 47zM48 46q-64 64 -64 187q0 58 16 134l139 657h295 l-147 -696q-6 -31 -6 -58q0 -84 61 -84q56 0 101 51q36 43 63 130l139 657h295l-147 -696q-9 -30 -9 -66q0 -42 20 -59t64 -17q57 0 102 51q40 45 64 130h86q-55 -156 -133 -247q-66 -75 -149 -108q-61 -24 -129 -24q-88 0 -140 49t-63 145q-70 -112 -158 -160 q-63 -34 -145 -34q-98 0 -155 58z" />
<glyph unicode="&#x43a;" horiz-adv-x="1026" d="M554.5 48q-62.5 60 -62.5 167q0 35 12 105q2 16 4 22q2 20 4 27q4 20 4 41q0 98 -78 98q-26 0 -56 -18l-33 -24l-42 -34l-90 -432h-295l219 1024h295l-88 -406q66 66 128 133l15 17q119 128 162 171q71 71 134 92q35 11 73 11q69 0 105 -37.5t36 -97.5q0 -63 -33.5 -98 t-95.5 -35q-57 0 -87 35q-27 30 -25 70q-32 -19 -60.5 -44.5t-62.5 -60.5l-20 -22q-14 -14 -38 -42q-25 -29 -61 -65q35 8 86 8q106 0 153 -49q42 -43 42 -141q0 -33 -12 -97q-5 -25 -9 -52.5t-4 -51.5q0 -76 82 -76q31 0 53.5 10.5t41.5 33.5q18 21 35 53t40 84h86 q-129 -379 -373 -379q-122 0 -184.5 60z" />
<glyph unicode="&#x43b;" horiz-adv-x="1143" d="M-25 61q-26 31 -39.5 72.5t-13.5 85.5q0 73 34 118.5t93 45.5q48 0 77.5 -29.5t29.5 -77.5q0 -44 -20.5 -69.5t-50.5 -25.5q-7 0 -11 1q2 -28 17 -43q20 -22 63 -22q48 0 79 31t53 90q21 60 35 128q10 57 24 117l7 33q32 157 71.5 257t89.5 157q45 53 101.5 73.5 t130.5 20.5h302l-109 -508l-36 -158q-13 -58 -13 -86q0 -86 82 -86q30 0 53 10.5t43 33.5q18 21 35.5 53t40.5 84h86q-129 -379 -381 -379q-117 0 -183 66q-29 29 -44 68.5t-15 82.5q0 86 45 278l90 406q-54 0 -92 -22t-67 -69q-28 -45 -51 -117t-48 -185l-4 -20 q-31 -145 -52.5 -223t-51.5 -133q-37 -67 -91.5 -99.5t-136.5 -32.5q-112 0 -172 73z" />
<glyph unicode="&#x43c;" horiz-adv-x="1583" d="M49 8.5q-43 20.5 -72 56.5q-27 33 -41 74.5t-14 83.5q0 72 33.5 113t93.5 41q48 0 77.5 -29.5t29.5 -77.5q0 -44 -20.5 -69.5t-50.5 -25.5q-7 0 -11 1q-2 -30 14 -50q21 -28 66 -28q52 0 87 33.5t58 96.5q21 60 36 134q13 71 30 154l108 508h287l43 -786l381 786h303 l-109 -508l-36 -158q-13 -58 -13 -86q0 -86 82 -86q31 0 54 10.5t43 33.5q18 21 34.5 52t40.5 85h86q-129 -379 -381 -379q-118 0 -182 66q-29 29 -44 68.5t-15 82.5q0 87 43 272l32 146l-303 -623h-287l-36 625l-27 -129q-29 -145 -52 -231t-54 -145q-35 -66 -86.5 -99 t-129.5 -33q-55 0 -98 20.5z" />
<glyph unicode="&#x43d;" horiz-adv-x="1038" d="M561 54q-29 29 -44 68.5t-15 82.5q0 38 11.5 103t35.5 184h-227l-105 -492h-295l217 1024h295l-88 -410h229l93 410h274l-108 -508l-36 -158q-14 -62 -14 -86q0 -86 82 -86q31 0 54 10.5t43 33.5q18 21 34.5 52t40.5 85h86q-129 -379 -381 -379q-118 0 -182 66z" />
<glyph unicode="&#x43e;" horiz-adv-x="899" d="M64 66q-93 82 -93 249q0 63 13 139.5t40 154.5q62 186 177 297q139 136 331 136q263 0 263 -327v-2q6 -2 10 -2h12q68 0 161 38q82 34 155 85l18 -56q-60 -63 -154.5 -107t-208.5 -63q-12 -139 -54 -253.5t-108 -196.5q-65 -80 -149 -123t-178 -43q-152 0 -235 74z M454.5 208.5q37.5 32.5 70.5 90.5t57 136t36 167q-30 8 -42.5 30t-12.5 56q0 42 17 70t47 41q-4 65 -21 93q-9 14 -22.5 20t-34.5 6q-69 0 -135 -104q-61 -94 -100 -232q-38 -135 -38 -240q0 -51 5.5 -83t18.5 -50q12 -18 31 -25.5t50 -7.5q36 0 73.5 32.5z" />
<glyph unicode="&#x43f;" d="M551 60q-53 62 -53 159q0 46 11.5 107t34.5 157q23 98 34.5 156.5t11.5 101.5q0 105 -74 105q-52 0 -96 -55q-37 -47 -64 -134l-139 -657h-295l217 1024h295l-22 -106q60 67 129 94q51 20 110 20q104 0 164 -54q64 -59 64 -177q0 -71 -26 -185q-7 -33 -23 -99 q-29 -111 -42 -177q-8 -42 -8 -68q0 -41 18.5 -63.5t63.5 -22.5q61 0 103 50q32 38 69 131h86q-76 -225 -192 -315q-82 -64 -189 -64q-127 0 -188 72z" />
<glyph unicode="&#x440;" horiz-adv-x="989" d="M156 1100h295l-33 -154q104 88 239 88q115 0 178 -70q72 -82 72 -253q0 -165 -42 -310q-53 -185 -154 -287q-124 -126 -308 -126q-71 0 -117 22q-35 16 -57 51l-106 -499l-309 -74zM510 267q56 79 90 222q27 115 27 228q0 101 -37 144q-24 26 -66 26q-37 0 -75 -26 t-66 -75l-121 -573q7 -20 26.5 -33.5t51.5 -13.5q99 0 170 101z" />
<glyph unicode="&#x441;" horiz-adv-x="786" d="M60 64q-87 81 -87 249q0 63 12.5 140.5t38.5 154.5q61 187 173 298q138 136 327 136q123 0 182 -59q46 -47 46 -129q0 -72 -32 -112q-30 -37 -77 -37q-34 0 -72 24q25 65 25 121q0 39 -14.5 61.5t-42.5 22.5q-60 0 -125 -106q-59 -94 -98 -239q-40 -142 -40 -257 q0 -100 38 -138q33 -34 110 -34q111 0 203 60q39 25 75 59.5t84 87.5h70q-97 -164 -223 -261q-155 -118 -340 -118q-151 0 -233 76z" />
<glyph unicode="&#x442;" horiz-adv-x="1540" d="M1057 60q-53 62 -53 159q0 46 11.5 107t34.5 157q23 98 34.5 156.5t11.5 101.5q0 105 -74 105q-52 0 -96 -55q-37 -47 -64 -134l-139 -657h-295l150 707q6 24 6 51q0 41 -13 63q-17 27 -49 27q-58 0 -101 -56q-38 -48 -65 -135l-139 -657h-295l217 1024h295l-22 -106 q60 67 131 95q56 21 119 21q86 0 137 -40q57 -45 73 -136q66 102 152 144q61 30 133 30q103 0 163 -54q64 -59 64 -177q0 -67 -25 -185q-10 -49 -24 -99q-25 -96 -41 -177q-8 -42 -8 -68q0 -41 18.5 -63.5t63.5 -22.5q61 0 103 50q32 38 69 131h86q-76 -225 -192 -315 q-82 -64 -189 -64q-127 0 -188 72z" />
<glyph unicode="&#x443;" horiz-adv-x="995" d="M229.5 -499.5q-41.5 12.5 -71.5 37.5q-32 25 -50 62.5t-18 86.5q0 116 109 199q82 61 225 106l25 110q-60 -66 -130 -93q-54 -21 -116 -21q-98 0 -155 58q-64 64 -64 187q0 58 16 134l139 657h295l-147 -696q-6 -25 -6 -52q0 -39 13 -62q15 -28 48 -28q54 0 97 48 q37 41 63 120l143 670h295l-203 -950q97 32 155 96q63 69 103 197h86q-55 -182 -164 -281q-80 -72 -198 -102l-31 -148q-39 -196 -156 -284q-85 -64 -213 -64q-48 0 -89.5 12.5zM338 -307q34 44 53 137l12 59q-93 -35 -139 -71q-61 -46 -61 -103q0 -27 17 -45q19 -22 52 -22 q31 0 66 45z" />
<glyph unicode="&#x444;" horiz-adv-x="1511" d="M492 100q-105 -112 -238 -112q-134 0 -206 79q-77 85 -77 250q0 232 129 461q66 117 165 184q106 72 233 72q168 0 168 -112l102 471l283 41l-111 -488q100 88 240 88q250 0 250 -323q0 -196 -51 -352q-58 -173 -165 -266q-123 -105 -296 -105q-124 0 -166 73l-107 -499 l-289 -74zM428 202q31 15 59 45q29 29 50 85l108 506q-12 69 -90 69q-64 0 -117.5 -66t-88.5 -146q-25 -58 -45.5 -137.5t-26.5 -144.5q-3 -37 -3 -68q0 -74 17 -108q13 -27 28.5 -38.5t47.5 -11.5q30 0 61 15zM1020 252q62 78 96 209q33 127 33 256q0 170 -102 170 q-83 0 -142 -101l-121 -573q17 -47 78 -47q90 0 158 86z" />
<glyph unicode="&#x445;" horiz-adv-x="1069" d="M582 72q-67 92 -95 272l-282 -344h-148l414 467l-33 229q-16 99 -34 137q-16 33 -44 33q-31 0 -66.5 -31t-72.5 -92q-85 -141 -135 -376h-86q40 177 94 308q65 162 156 254q105 105 233 105q110 0 169 -82q43 -61 53 -161l18 -156q87 97 130 167.5t48 127.5 q-20 -4 -35 -4q-50 0 -74 34q-22 28 -22 80q0 49 42 78q36 23 97 23q27 0 49 -16t37 -43q14 -27 21.5 -60.5t7.5 -67.5q0 -47 -17 -94.5t-53 -99.5q-33 -48 -82.5 -105t-132.5 -147l19 -143q12 -98 43 -140q28 -39 84 -39q59 0 110 51q49 49 74 130h86q-74 -214 -205 -309 q-97 -70 -213 -70q-94 0 -155 84z" />
<glyph unicode="&#x446;" horiz-adv-x="1096" d="M196 -290q27 72 65 111q37 39 90 53.5t138 14.5h160q58 0 87 3.5t53 18.5q28 18 47 55.5t34 105.5q-50 -52 -93 -70q-19 -8 -40 -11t-49 -3q-74 0 -122.5 49.5t-59.5 144.5q-70 -112 -158 -160q-63 -34 -145 -34q-98 0 -155 58q-64 64 -64 187q0 58 16 134l139 657h295 l-147 -696q-6 -31 -6 -58q0 -84 61 -84q56 0 101 51q36 43 63 130l139 657h295l-147 -696q-9 -30 -9 -66q0 -42 20 -59t64 -17h105q-22 -245 -94 -385q-59 -114 -149 -157q-61 -29 -148 -29h-142h-90q-37 0 -60 -8.5t-35 -28.5q-13 -20 -22 -61h-90q26 121 53 193z" />
<glyph unicode="&#x447;" d="M553 46q-64 64 -64 187q0 54 17 134l10 51q-61 -66 -129 -93q-53 -22 -117 -22q-98 0 -155 58q-64 64 -64 188q0 51 17 133l71 342h295l-80 -381q-6 -30 -6 -57q0 -84 62 -84q58 0 103 51q43 49 60 129l72 342h295l-147 -696q-9 -30 -9 -66q0 -42 20 -59t64 -17 q57 0 102 51q40 45 64 130h86q-55 -156 -133 -247q-66 -75 -149 -108q-61 -24 -129 -24q-98 0 -156 58z" />
<glyph unicode="&#x448;" horiz-adv-x="1540" d="M48 46q-64 64 -64 187q0 58 16 134l139 657h295l-147 -696q-6 -31 -6 -58q0 -84 61 -84q56 0 101 51q36 43 63 130l139 657h295l-147 -696q-7 -27 -7 -58q0 -84 62 -84q56 0 101 51q36 43 63 130l139 657h295l-148 -696q-8 -26 -8 -66q0 -42 20 -59t64 -17q57 0 102 51 q38 45 64 130h86q-76 -221 -208 -315q-92 -64 -204 -64q-88 0 -139.5 49t-62.5 145q-70 -112 -158 -160q-63 -34 -145 -34q-88 0 -140 49t-63 145q-70 -112 -158 -160q-63 -34 -145 -34q-98 0 -155 58z" />
<glyph unicode="&#x449;" horiz-adv-x="1602" d="M702 -290q27 72 65 111q37 39 90 53.5t138 14.5h160q58 0 87 3.5t53 18.5q28 18 47 55.5t34 105.5q-29 -29 -51 -45.5t-43 -24.5q-19 -8 -39.5 -11t-48.5 -3q-74 0 -122.5 49.5t-59.5 144.5q-70 -112 -158 -160q-63 -34 -145 -34q-88 0 -140 49t-63 145 q-70 -112 -158 -160q-63 -34 -145 -34q-98 0 -155 58q-64 64 -64 187q0 58 16 134l139 657h295l-147 -696q-6 -31 -6 -58q0 -84 61 -84q56 0 101 51q36 43 63 130l139 657h295l-147 -696q-7 -27 -7 -58q0 -84 62 -84q56 0 101 51q36 43 63 130l139 657h295l-148 -696 q-8 -26 -8 -66q0 -42 20 -59t64 -17h105q-22 -245 -94 -385q-59 -114 -149 -157q-61 -29 -149 -29h-141h-90q-37 0 -60 -8.5t-35 -28.5q-13 -20 -22 -61h-90q26 121 53 193z" />
<glyph unicode="&#x44a;" horiz-adv-x="918" d="M78 53q-90 69 -90 199q0 106 60 231q51 107 142 226q69 91 170 204h-100q-55 0 -80 -5q-33 -7 -33 -27q0 -5 4 -6q10 -2 16 -14q3 -7 3 -25q0 -54 -34 -83q-32 -26 -77 -26q-36 0 -64 23q-30 25 -30 67q0 39 16.5 76.5t47.5 66.5q31 30 75 47t99 17h368l-61 -98 q-41 -70 -68 -122q-34 -65 -59 -134q98 63 213 63q47 0 90.5 -15t75.5 -45q35 -33 54.5 -82.5t19.5 -113.5q0 -109 -43 -200t-119 -156q-75 -64 -172 -98.5t-205 -34.5q-138 0 -219 65zM441 191q38 29 68 78q27 45 42.5 99.5t15.5 100.5q0 64 -32 93q-25 20 -68 20 q-71 0 -121 -35q-37 -96 -54 -168q-13 -57 -13 -113q0 -104 81 -104q43 0 81 29z" />
<glyph unicode="&#x44b;" horiz-adv-x="1341" d="M64.5 57q-76.5 69 -76.5 193q0 67 14 117l135 657h283l-152 -721q-6 -14 -6 -34.5v-22.5q0 -84 92 -84q41 0 81 26.5t71 72.5q31 47 49 109.5t18 131.5q0 49 -30 78q-26 -19 -60 -19q-16 0 -32 5.5t-28 15.5q-30 25 -30 67q0 44 37 71q32 23 78 23q47 0 84 -12 q69 31 130 64t136 78q10 6 23.5 14t29.5 18q114 70 207 119h127l-108 -508l-36 -158q-14 -62 -14 -86q0 -86 82 -86q31 0 54 10.5t43 33.5q18 21 34.5 52t40.5 85h86q-129 -379 -378 -379q-118 0 -184 68q-29 29 -43.5 69t-14.5 86q0 11 1 19q3 28 5 36q7 51 30 164 q21 107 77 358q-105 -66 -230 -133q49 -76 49 -204q0 -44 -12 -95.5t-35 -100.5q-56 -117 -149 -185q-114 -82 -262 -82q-140 0 -216.5 69z" />
<glyph unicode="&#x44c;" horiz-adv-x="918" d="M167 6q-57 18 -96 52q-40 33 -61.5 82t-21.5 110q0 67 14 117l139 657h295l-69 -332q64 27 117 35q38 6 87 6q61 0 110.5 -18t83.5 -53t52.5 -86.5t18.5 -114.5q0 -44 -13.5 -96t-39.5 -103q-62 -118 -174 -189q-131 -85 -314 -85q-71 0 -128 18zM441.5 188.5 q36.5 26.5 65.5 71.5q27 43 43.5 93.5t16.5 95.5q0 62 -28 97.5t-82 35.5q-23 0 -62 -12q-42 -12 -59 -25l-51 -242q-6 -14 -6 -34.5v-22.5q0 -84 88 -84q38 0 74.5 26.5z" />
<glyph unicode="&#x44d;" horiz-adv-x="877" d="M-6 45.5q-70 57.5 -70 159.5q0 82 36 129q34 43 83 43q21 0 39.5 -6t36.5 -23q-27 -70 -27 -139q0 -113 113 -113q43 0 83.5 32t75.5 89q33 54 60.5 125.5t44.5 149.5h-254l27 122h245q5 45 5 78q0 101 -41 141q-20 20 -51.5 28.5t-75.5 8.5q-61 0 -105 -32.5t-82 -100.5 h-104q59 146 151 221q103 84 273 84q159 0 246 -81q92 -86 92 -254q0 -59 -14.5 -134.5t-43.5 -152.5q-32 -85 -80 -161.5t-110 -134.5q-148 -136 -344 -136q-139 0 -209 57.5z" />
<glyph unicode="&#x44e;" horiz-adv-x="1382" d="M548 66q-93 82 -93 249q0 78 18 177h-154l-102 -492h-295l217 1024h295l-86 -410h160q29 85 73.5 161t104.5 133q139 134 330 134q262 0 262 -327v-2q6 -2 10 -2h12q68 0 161 38q82 34 155 85l18 -56q-60 -63 -154.5 -107t-207.5 -63q-12 -139 -54 -253.5t-109 -196.5 q-65 -80 -149 -123t-178 -43q-151 0 -234 74zM938 208q37 32 71 91q33 58 57 136t36 167q-30 8 -42.5 30t-12.5 56q0 42 16.5 70t46.5 41q-4 65 -21 93q-9 14 -22.5 20t-34.5 6q-35 0 -69.5 -27.5t-65.5 -76.5q-60 -95 -99 -232q-38 -135 -38 -240q0 -98 23 -133 q12 -18 31 -25.5t50 -7.5q37 0 74 32z" />
<glyph unicode="&#x44f;" horiz-adv-x="1079" d="M-20 58q-28 31 -43 73t-15 88q0 73 34 118.5t93 45.5q48 0 77.5 -29.5t29.5 -77.5q0 -44 -20.5 -69.5t-50.5 -25.5q-7 0 -11 1q2 -27 18 -43q20 -22 62 -22q35 0 61 21.5t46 63.5q18 39 34 94.5t33 135.5q-90 19 -140 76q-55 63 -55 162q0 158 117 249q136 105 422 105 h311l-109 -508l-36 -158q-13 -58 -13 -86q0 -86 82 -86q31 0 54 10.5t43 33.5q18 21 34.5 52t40.5 85h86q-129 -379 -381 -379q-118 0 -182 66q-29 29 -44 68.5t-15 82.5q0 29 6 70q6 39 31 159q-55 -12 -115 -12q-28 -118 -52.5 -194t-56.5 -127q-35 -57 -84.5 -85 t-119.5 -28q-109 0 -172 70zM572 518h5q7 0 21 4l86 391h-49q-119 0 -182 -66q-31 -31 -46.5 -75t-15.5 -96q0 -86 43 -124q37 -34 105 -34h33z" />
<glyph unicode="&#x451;" horiz-adv-x="786" d="M280 1210q-36 36 -36 88q0 24 9.5 47t26.5 41q35 37 89 37q49 0 88 -37q17 -17 27 -40t10 -48q0 -53 -37 -88q-39 -36 -88 -36q-53 0 -89 36zM648 1210q-36 34 -36 88q0 25 9.5 48t26.5 40q37 37 89 37q25 0 48 -10t40 -27t27 -40t10 -48q0 -53 -37 -88 q-18 -17 -41 -26.5t-47 -9.5q-51 0 -89 36zM60 64q-87 81 -87 249q0 63 12.5 140t37.5 154q28 86 71.5 163t101.5 136q134 136 330 136q125 0 182 -60q44 -47 44 -136q0 -87 -38 -163.5t-105 -135.5q-67 -58 -152 -92.5t-176 -40.5q-5 -52 -5 -82q0 -100 38 -138 q33 -34 110 -34q111 0 203 60q39 25 75 59.5t84 87.5h70q-97 -164 -223 -261q-155 -118 -340 -118q-151 0 -233 76zM408 545q54 29 96 76q42 48 66 107.5t24 121.5q0 41 -11.5 62.5t-39.5 21.5q-37 0 -74.5 -36t-72.5 -99q-32 -59 -58 -134t-41 -153q57 4 111 33z" />
<glyph unicode="&#x452;" horiz-adv-x="1006" d="M169 -462q-33 25 -51 62.5t-18 86.5q0 122 111 207q83 65 225 104q67 299 84 381l22 104l12 62q7 43 7 55q0 105 -74 105q-26 0 -52 -14.5t-47 -40.5q-45 -52 -62 -134l-109 -516h-295l217 1024h-110l22 111h113l55 258l303 41l-63 -299h256l-25 -111h-256l-53 -248 q59 65 130 95q51 20 112 20q105 0 163 -54q64 -61 64 -178q0 -31 -7 -72q-10 -58 -34 -165l-33 -146l-45 -202q103 34 164 96q70 72 111 197h86q-56 -186 -171 -282q-87 -71 -212 -101l-33 -148q-45 -198 -147 -284q-43 -36 -92.5 -50t-106.5 -14q-97 0 -161 50zM348 -307 q34 44 53 137l7 36q2 13 8 30q-96 -37 -141 -72q-62 -49 -62 -109q0 -26 18 -45q19 -22 52 -22q32 0 65 45z" />
<glyph unicode="&#x453;" horiz-adv-x="768" d="M586 1536h215l-248 -387h-154zM43 43q-86 57 -86 176q0 103 68 181q27 32 63.5 60t85.5 58q62 38 92.5 58.5t57.5 45.5q32 31 49.5 64t17.5 74q0 46 -23.5 71t-70.5 25q-67 0 -120.5 -51t-100.5 -162h-99q67 191 164 287q112 112 283 112q56 0 105.5 -13.5t87.5 -40.5 q40 -29 61.5 -73.5t21.5 -103.5q0 -79 -29.5 -138.5t-82.5 -108.5q-47 -43 -104 -78q-69 -42 -112 -71.5t-72 -62.5q-32 -37 -32 -84q0 -57 38 -82.5t108 -25.5q94 0 173 46q86 48 181 161h70q-110 -176 -233 -267q-149 -112 -331 -112q-149 0 -231 55z" />
<glyph unicode="&#x454;" horiz-adv-x="786" d="M60 64q-87 81 -87 249q0 63 12.5 140.5t38.5 154.5q61 187 173 298q138 136 327 136q123 0 182 -59q46 -47 46 -129q0 -72 -32 -112q-30 -37 -77 -37q-34 0 -72 24q25 65 25 121q0 39 -14.5 61.5t-42.5 22.5q-30 0 -60.5 -25.5t-59.5 -71.5q-57 -92 -95 -223h243 l-26 -122h-248q-17 -91 -17 -160q0 -100 38 -138q33 -34 110 -34q111 0 203 60q39 25 75 59.5t84 87.5h70q-97 -164 -223 -261q-155 -118 -340 -118q-151 0 -233 76z" />
<glyph unicode="&#x455;" horiz-adv-x="782" d="M102 10.5q-57 22.5 -96 62.5q-36 37 -54 82.5t-18 94.5q0 67 34 121q30 48 75 69q80 142 139 288t113 319l303 40q12 -260 22 -399q10 -143 17 -210q6 -78 6 -136q0 -52 -8 -78q92 54 147 103h86q-73 -85 -150.5 -146t-162.5 -110q-61 -64 -153 -95q-80 -28 -169 -28 q-74 0 -131 22.5zM291 192q55 50 55 148q0 41 -5 103l-5 61q-9 79 -18 183l-11 138q-29 -93 -69 -184.5t-97 -202.5q47 -26 47 -71q0 -40 -24 -69q-26 -32 -66 -32q-20 0 -33.5 5.5t-21.5 21.5q0 -74 29 -108.5t96 -34.5q77 0 123 42z" />
<glyph unicode="&#x456;" horiz-adv-x="547" d="M279 1147.5q-30 12.5 -52 34.5q-22 21 -34.5 51t-12.5 63t12.5 63t34.5 53t52 35.5t63 12.5t63 -12.5t53 -35.5t35.5 -53t12.5 -63t-12.5 -63t-35.5 -51q-23 -22 -53 -34.5t-63 -12.5t-63 12.5zM48 46q-64 64 -64 187q0 58 16 134l139 657h295l-147 -696q-8 -26 -8 -66 q0 -42 19.5 -59t63.5 -17q30 0 58.5 13.5t52.5 37.5q49 49 74 130h86q-55 -155 -138 -247q-70 -75 -158 -108q-64 -24 -134 -24q-98 0 -155 58z" />
<glyph unicode="&#x457;" horiz-adv-x="547" d="M69 1210q-36 36 -36 88q0 24 9.5 47t26.5 41q35 37 89 37q49 0 88 -37q17 -17 27 -40t10 -48q0 -53 -37 -88q-39 -36 -88 -36q-53 0 -89 36zM437 1210q-36 34 -36 88q0 25 9.5 48t26.5 40q37 37 89 37q25 0 48 -10t40 -27t27 -40t10 -48q0 -53 -37 -88q-18 -17 -41 -26.5 t-47 -9.5q-51 0 -89 36zM48 46q-64 64 -64 187q0 58 16 134l139 657h295l-147 -696q-8 -26 -8 -66q0 -42 19.5 -59t63.5 -17q30 0 58.5 13.5t52.5 37.5q49 49 74 130h86q-55 -155 -138 -247q-70 -75 -158 -108q-64 -24 -134 -24q-98 0 -155 58z" />
<glyph unicode="&#x458;" horiz-adv-x="492" d="M263 1149.5q-30 12.5 -52 34.5q-22 21 -34.5 51t-12.5 63t12.5 63.5t34.5 52.5t52 35t63 13t63 -13t52 -35t35 -52.5t13 -63.5t-13 -62.5t-35 -51.5t-52 -34.5t-63 -12.5t-63 12.5zM-345 -462q-33 25 -51 62.5t-18 86.5q0 115 110 198q81 62 226 107l219 1032h295 l-203 -950q97 32 155 96q62 68 104 197h86q-55 -182 -164 -281q-81 -73 -199 -102l-31 -148q-39 -195 -155 -284q-85 -64 -213 -64q-97 0 -161 50zM-166 -307q34 44 53 137l13 59q-95 -36 -140 -71q-61 -46 -61 -103q0 -27 17 -45q20 -22 53 -22q32 0 65 45z" />
<glyph unicode="&#x459;" horiz-adv-x="1526" d="M-25 61q-26 31 -39.5 72.5t-13.5 85.5q0 73 34 118.5t93 45.5q48 0 77.5 -29.5t29.5 -77.5q0 -44 -20.5 -69.5t-50.5 -25.5q-7 0 -11 1q2 -28 17 -43q20 -22 63 -22q48 0 79 31t53 90q21 60 35 128q10 57 24 117l7 33q32 157 71.5 257t89.5 157q45 53 101.5 73.5 t130.5 20.5h302l-72 -332q65 27 118 35q38 6 87 6q124 0 194 -71.5t70 -200.5q0 -45 -13 -96.5t-39 -102.5q-61 -119 -170 -189q-129 -85 -309 -85q-139 0 -220 70q-81 69 -81 192q0 64 15 117l114 522q-54 0 -92 -22t-67 -69q-28 -45 -51 -117t-48 -185l-4 -20 q-31 -145 -52.5 -223t-51.5 -133q-37 -67 -91.5 -99.5t-136.5 -32.5q-112 0 -172 73zM1049.5 188.5q36.5 26.5 65.5 71.5q28 42 44.5 93t16.5 96q0 62 -28 97.5t-83 35.5q-21 0 -62 -12q-42 -12 -59 -25l-51 -242q-6 -14 -6 -34.5v-22.5q0 -84 88 -84q38 0 74.5 26.5z" />
<glyph unicode="&#x45a;" horiz-adv-x="1421" d="M589 58q-81 69 -81 192q0 67 14 117l27 125h-227l-105 -492h-295l217 1024h295l-88 -410h232l90 410h274l-72 -332q64 27 118 35q38 6 87 6q124 0 194 -71.5t70 -200.5q0 -45 -13 -96.5t-39 -102.5q-61 -118 -169 -189q-128 -85 -309 -85q-139 0 -220 70zM945 188.5 q37 26.5 66 71.5q27 43 43.5 93.5t16.5 95.5q0 62 -28 97.5t-82 35.5q-23 0 -62 -12q-42 -12 -59 -25l-52 -242q-6 -14 -6 -34.5v-22.5q0 -84 88 -84q38 0 75 26.5z" />
<glyph unicode="&#x45b;" d="M551 60q-53 62 -53 159q0 40 8.5 88t23.5 114l6 29q13 57 19 90.5t6 59.5q0 105 -74 105q-26 0 -52 -14.5t-47 -40.5q-45 -52 -62 -134l-109 -516h-295l217 1024h-110l22 111h113l55 258l303 41l-63 -299h256l-25 -111h-256l-53 -248q59 65 130 95q51 20 112 20 q105 0 163 -54q64 -61 64 -178q0 -42 -8.5 -86t-26.5 -115q-19 -77 -27 -114.5t-8 -71.5q0 -41 18.5 -63.5t63.5 -22.5q61 0 103 50q32 38 69 131h86q-76 -225 -192 -315q-82 -64 -189 -64q-127 0 -188 72z" />
<glyph unicode="&#x45c;" horiz-adv-x="1026" d="M662 1536h215l-248 -387h-154zM554.5 48q-62.5 60 -62.5 167q0 35 12 105q2 16 4 22q2 20 4 27q4 20 4 41q0 98 -78 98q-26 0 -56 -18l-33 -24l-42 -34l-90 -432h-295l219 1024h295l-88 -406q66 66 128 133l15 17q119 128 162 171q71 71 134 92q35 11 73 11 q69 0 105 -37.5t36 -97.5q0 -63 -33.5 -98t-95.5 -35q-57 0 -87 35q-27 30 -25 70q-32 -19 -60.5 -44.5t-62.5 -60.5l-20 -22q-14 -14 -38 -42q-25 -29 -61 -65q35 8 86 8q106 0 153 -49q42 -43 42 -141q0 -33 -12 -97q-5 -25 -9 -52.5t-4 -51.5q0 -76 82 -76 q31 0 53.5 10.5t41.5 33.5q18 21 35 53t40 84h86q-129 -379 -373 -379q-122 0 -184.5 60z" />
<glyph unicode="&#x45e;" horiz-adv-x="995" d="M335.5 1171q-69.5 47 -69.5 129q0 67 37 108.5t100 41.5q60 0 93.5 -28.5t33.5 -82.5q0 -24 -7 -43q-13 -36 -42 -55q24 -8 82 -8q98 0 174 50q91 59 142 190h86q-67 -193 -179 -276q-99 -73 -254 -73q-127 0 -196.5 47zM229.5 -499.5q-41.5 12.5 -71.5 37.5 q-32 25 -50 62.5t-18 86.5q0 116 109 199q82 61 225 106l25 110q-60 -66 -130 -93q-54 -21 -116 -21q-98 0 -155 58q-64 64 -64 187q0 58 16 134l139 657h295l-147 -696q-6 -25 -6 -52q0 -39 13 -62q15 -28 48 -28q55 0 100 48q42 44 60 120l143 670h295l-203 -950 q97 32 155 96q63 69 103 197h86q-55 -182 -164 -281q-80 -72 -198 -102l-31 -148q-39 -196 -156 -284q-85 -64 -213 -64q-48 0 -89.5 12.5zM338 -307q34 44 53 137l12 59q-93 -35 -139 -71q-61 -46 -61 -103q0 -27 17 -45q19 -22 52 -22q31 0 66 45z" />
<glyph unicode="&#x45f;" d="M48 46q-64 64 -64 187q0 58 16 134l139 657h295l-147 -696q-6 -31 -6 -58q0 -84 61 -84q56 0 101 51q36 43 63 130l139 657h295l-147 -696q-9 -30 -9 -66q0 -42 20 -59t64 -17q57 0 102 51q40 45 64 130h86q-55 -156 -133 -247q-66 -75 -149 -108q-61 -24 -129 -24 q-88 0 -140 49t-63 145q-70 -112 -158 -160q-63 -34 -145 -34q-98 0 -155 58zM400.5 -482q7.5 18 7.5 33q0 24 -10 41.5t-22.5 33t-16.5 20.5q-24 28 -37 56.5t-13 68.5q0 120 109 229h104q-12 -12 -19 -29t-7 -32q0 -20 9 -36.5t22 -33.5t19 -25q23 -32 36.5 -63t13.5 -72 q-2 -55 -31.5 -111.5t-79.5 -109.5h-104q12 12 19.5 30z" />
<glyph unicode="&#x490;" horiz-adv-x="883" d="M481 1368q-65 -2 -113 -23.5t-81 -67.5q-72 -100 -72 -333q0 -66 15 -102q4 -13 10 -23q4 -7 4 -14q-110 0 -163 44q-56 47 -56 155q0 146 66 259q73 126 224 196q167 77 420 77q53 0 146 -11q102 -12 131 -12q62 0 102 20.5t64 59.5q20 32 31 74.5t24 114.5 q42 -36 66 -93t24 -120q0 -129 -77 -204q-37 -36 -90 -55.5t-118 -19.5q-55 0 -121 10.5t-151 30.5l-285 -1331h-295z" />
<glyph unicode="&#x491;" horiz-adv-x="700" d="M139 1024h377q81 0 90 31q-33 15 -33 53q0 40 26.5 66t80.5 26q46 0 72 -28.5t26 -73.5q0 -44 -15.5 -83.5t-44.5 -68.5q-31 -32 -76 -49.5t-101 -17.5h-138l-186 -879h-295z" />
<glyph unicode="&#x2000;" horiz-adv-x="1024" />
<glyph unicode="&#x2001;" horiz-adv-x="2048" />
<glyph unicode="&#x2002;" horiz-adv-x="1024" />
<glyph unicode="&#x2003;" horiz-adv-x="2048" />
<glyph unicode="&#x2004;" horiz-adv-x="682" />
<glyph unicode="&#x2005;" horiz-adv-x="512" />
<glyph unicode="&#x2006;" horiz-adv-x="341" />
<glyph unicode="&#x2007;" horiz-adv-x="341" />
<glyph unicode="&#x2008;" horiz-adv-x="256" />
<glyph unicode="&#x2009;" horiz-adv-x="409" />
<glyph unicode="&#x200a;" horiz-adv-x="113" />
<glyph unicode="&#x2010;" horiz-adv-x="594" d="M76 616h409l-34 -161h-412z" />
<glyph unicode="&#x2011;" horiz-adv-x="594" d="M76 616h409l-34 -161h-412z" />
<glyph unicode="&#x2012;" horiz-adv-x="594" d="M76 616h409l-34 -161h-412z" />
<glyph unicode="&#x2013;" horiz-adv-x="721" d="M76 616h532l-35 -161h-534z" />
<glyph unicode="&#x2014;" horiz-adv-x="909" d="M76 616h717l-35 -161h-719z" />
<glyph unicode="&#x2018;" horiz-adv-x="428" d="M231 1093q-41 39 -41 103q0 78 66 174q67 95 178 170l31 -31q-43 -46 -67.5 -84.5t-24.5 -62.5q0 -20 16 -33q5 -5 27.5 -24t39.5 -45q15 -24 15 -64q0 -63 -38 -103q-40 -40 -99 -40q-61 0 -103 40z" />
<glyph unicode="&#x2019;" horiz-adv-x="422" d="M229 1083q44 45 68.5 84t24.5 64q0 15 -9 26t-21.5 21.5t-18.5 15.5q-23 19 -36.5 43t-13.5 60q0 30 10.5 57t28.5 46q38 40 98 40q30 0 57 -10.5t47 -29.5q19 -19 29.5 -45.5t10.5 -57.5q0 -39 -17 -84t-48 -90q-70 -99 -179 -170z" />
<glyph unicode="&#x201a;" horiz-adv-x="451" d="M-14 -158q43 45 67.5 84t24.5 64q0 21 -15 34q-5 4 -19.5 16t-26.5 25t-21 28q-16 22 -16 63q0 31 10 57.5t29 45.5q38 40 98 40q30 0 57 -10.5t46 -29.5t29.5 -46t10.5 -57q0 -39 -17 -84t-48 -90q-70 -99 -179 -170z" />
<glyph unicode="&#x201c;" horiz-adv-x="879" d="M231 1093q-41 39 -41 103q0 78 66 174q67 95 178 170l31 -31q-43 -46 -67.5 -84.5t-24.5 -62.5q0 -20 16 -33q5 -5 27.5 -24t39.5 -45q15 -24 15 -64q0 -63 -38 -103q-40 -40 -99 -40q-61 0 -103 40zM628 1093q-40 40 -40 103q0 80 65 174q67 95 178 170l31 -31 q-43 -46 -67.5 -84.5t-24.5 -62.5q0 -20 16 -33q5 -5 27.5 -24t39.5 -45q15 -24 15 -64q0 -63 -38 -103q-40 -40 -99 -40q-63 0 -103 40z" />
<glyph unicode="&#x201d;" horiz-adv-x="872" d="M229 1083q44 45 68.5 84t24.5 64q0 15 -9 26t-21.5 21.5t-18.5 15.5q-23 19 -36.5 43t-13.5 60q0 30 10.5 57t28.5 46q38 40 98 40q30 0 57 -10.5t47 -29.5q19 -19 29.5 -45.5t10.5 -57.5q0 -39 -17 -84t-48 -90q-70 -99 -179 -170zM627 1083q43 45 67.5 84t24.5 64 q0 21 -15 34q-5 4 -19.5 16t-26.5 25t-21 28q-16 22 -16 63q0 31 10 57.5t29 45.5q38 40 98 40q30 0 57 -10.5t46 -29.5t29.5 -46t10.5 -57q0 -39 -17 -84t-48 -90q-70 -99 -179 -170z" />
<glyph unicode="&#x201e;" horiz-adv-x="901" d="M-14 -158q43 45 67.5 84t24.5 64q0 21 -15 34q-5 4 -19.5 16t-26.5 25t-21 28q-16 22 -16 63q0 31 10 57.5t29 45.5q38 40 98 40q30 0 57 -10.5t46 -29.5t29.5 -46t10.5 -57q0 -39 -17 -84t-48 -90q-70 -99 -179 -170zM383 -158q43 45 67.5 84t24.5 64q0 21 -15 34 q-5 4 -19.5 16t-26.5 25t-21 28q-16 22 -16 63q0 31 10 57.5t29 45.5q38 40 98 40q30 0 57 -10.5t46 -29.5t29.5 -46t10.5 -57q0 -39 -16.5 -84t-47.5 -90q-70 -99 -179 -170z" />
<glyph unicode="&#x2022;" horiz-adv-x="889" d="M366.5 365q-35.5 15 -62.5 43q-27 27 -42.5 62.5t-15.5 76.5q0 39 15.5 75.5t42.5 63.5q27 28 62.5 43.5t75.5 15.5t76 -15.5t64 -43.5t43.5 -64t15.5 -75q0 -40 -15.5 -76t-43.5 -63q-28 -28 -63.5 -43t-76.5 -15q-40 0 -75.5 15z" />
<glyph unicode="&#x2026;" horiz-adv-x="1438" d="M162 4.5q-30 12.5 -52 34.5t-34.5 52t-12.5 63t12.5 63t34.5 52t52 35t63 13t63 -13t53 -35t35.5 -52t12.5 -63t-12.5 -63t-35.5 -52t-53 -34.5t-63 -12.5t-63 12.5zM644 4.5q-30 12.5 -52 34.5t-34.5 52t-12.5 63t12.5 63t34.5 52t52 35t63 13t63 -13t52 -35t35 -52 t13 -63t-13 -63t-35 -52t-52 -34.5t-63 -12.5t-63 12.5zM1145 4.5q-30 12.5 -51 34.5q-22 22 -34.5 52t-12.5 63t12.5 63t34.5 52t51.5 35t62.5 13t63 -13t53 -35t35.5 -52t12.5 -63t-12.5 -63t-35.5 -52t-53 -34.5t-63 -12.5t-63 12.5z" />
<glyph unicode="&#x202f;" horiz-adv-x="409" />
<glyph unicode="&#x2039;" horiz-adv-x="735" d="M41 487l18 84l629 349l-20 -113l-494 -287l397 -237l-24 -117z" />
<glyph unicode="&#x203a;" horiz-adv-x="705" d="M59 283l492 237l-397 287l18 113l504 -349l-23 -110l-622 -295z" />
<glyph unicode="&#x205f;" horiz-adv-x="512" />
<glyph unicode="&#x20ac;" horiz-adv-x="1038" d="M358 83q-90 83 -129 227q-34 118 -34 270h-156l29 102h131q6 72 19 135h-128l29 103h124q40 135 108.5 252.5t157.5 203.5q90 87 194.5 135t214.5 48q138 0 220 -74q39 -36 60 -89.5t21 -119.5q0 -43 -10.5 -85t-31.5 -74q-23 -36 -57 -56.5t-78 -20.5q-36 0 -68.5 27.5 t-51.5 81.5q13 7 26.5 24.5t23.5 38.5q23 50 23 86q0 54 -26 80q-20 19 -62 19q-114 0 -208 -136q-87 -126 -136 -341h430l-28 -103h-422q-10 -66 -15 -135h414l-29 -102h-391v-45q0 -157 53 -237q56 -87 175 -87q76 0 155 33q75 30 133 80q-4 -86 -40 -150.5t-97 -107.5 q-56 -39 -128.5 -58.5t-149.5 -19.5q-164 0 -265 95z" />
<glyph unicode="&#x2122;" horiz-adv-x="776" d="M133 1294q-59 -2 -88 -27q-35 -30 -35 -98q0 -23 3 -29l5 -12q-65 0 -65 60q0 68 47 111q52 49 162 49q16 0 63 -5q42 -6 90 -6q53 0 76 11l-5 -23q-6 -30 -24 -48q-9 -9 -22 -9q-27 0 -55 7q-40 8 -66 11l-86 -399h-88zM444 1317l84 12v-346l136 356h96l-78 -452h-88 l55 319l-129 -319h-84v268l-82 -268h-49z" />
<glyph unicode="&#x25fc;" horiz-adv-x="1140" d="M0 1140h1140v-1140h-1140v1140z" />
</font>
</defs>
</svg>
